<?xml version="1.0" standalone="no"?>
<!DOCTYPE svg PUBLIC "-//W3C//DTD SVG 1.1//EN" "http://www.w3.org/Graphics/SVG/1.1/DTD/svg11.dtd" >
<svg xmlns="http://www.w3.org/2000/svg" xmlns:xlink="http://www.w3.org/1999/xlink" version="1.1">
<metadata>
Created by FontForge 20201107 at Wed Oct 23 02:06:53 2024
 By 
Published by Die Gestalten Verlag GmbH &#38; Co. KG, 2008
Copyright (c) by Binnenland and re-p.org, 2008. All rights reserved. This software may not be reproduced, used, displayed, modified, disclosed or transferred without the express written approval of (Binnenland). 
</metadata>
<defs>
<font id="BlenderPro-Bold" horiz-adv-x="1136" >
  <font-face 
    font-family="Blender Pro Bold"
    font-weight="700"
    font-stretch="normal"
    units-per-em="2048"
    panose-1="2 0 8 6 3 0 0 2 0 4"
    ascent="1638"
    descent="-410"
    x-height="885"
    cap-height="1225"
    bbox="-147 -440 2226 1726"
    underline-thickness="40"
    underline-position="-271"
    unicode-range="U+000D-FB02"
  />
<missing-glyph horiz-adv-x="2048" 
 />
    <glyph glyph-name=".notdef" horiz-adv-x="2048" 
 />
    <glyph glyph-name=".null" horiz-adv-x="0" 
 />
    <glyph glyph-name="nonmarkingreturn" horiz-adv-x="682" 
 />
    <glyph glyph-name="CR" unicode="&#xd;" horiz-adv-x="1024" 
 />
    <glyph glyph-name="space" unicode=" " horiz-adv-x="481" 
 />
    <glyph glyph-name="exclam" unicode="!" horiz-adv-x="544" 
d="M317 332h-204v893h204v-893zM340 -6h-250v242h250v-242z" />
    <glyph glyph-name="quotedbl" unicode="&#x22;" horiz-adv-x="780" 
d="M610 1024l-16 -139h-203l19 166v260h200v-287zM305 1024l-16 -139h-203l18 166v260h201v-287z" />
    <glyph glyph-name="numbersign" unicode="#" horiz-adv-x="1093" 
d="M956 838l-34 -195h-172l-21 -111h172l-35 -192h-172l-37 -195h-200l37 195h-84l-37 -195h-201l35 195h-170l35 192h172l20 111h-172l35 195h172l35 186h201l-35 -186h84l34 186h201l-35 -186h172zM549 643h-84l-21 -111h84z" />
    <glyph glyph-name="dollar" unicode="$" horiz-adv-x="1118" 
d="M995 293q0 -73 -32 -117q-20 -30 -70 -79.5t-80 -67.5q-68 -37 -127 -37h-90v-176h-119v176h-117q-135 0 -260 170q-17 25 -37 63l203 68q41 -57 90 -94q5 -2 15 -2h106l2 327l-256 70q-75 21 -117.5 84.5t-42.5 138.5v117q0 71 31 117q20 30 70.5 79.5t81.5 67.5
q68 37 127 37h108v135h119v-135h76q131 0 260 -170q24 -35 41 -72l-207 -59q-47 67 -90 94q-2 2 -12 2h-70v-321l238 -64q74 -21 116.5 -85t42.5 -138v-129zM279 825q0 -13 7 -22.5t15 -11.5l178 -50v289h-96l-12 -2q-24 -12 -58 -47t-34 -47v-109zM756 451l-158 43l-2 -297
h80l12 2q23 12 57.5 47t34.5 47v123q0 13 -8 23t-16 12z" />
    <glyph glyph-name="percent" unicode="%" horiz-adv-x="1712" 
d="M1264 1225l-676 -1227h-236l678 1227h234zM1538 188q0 -62 -27 -98q-34 -44 -75 -76q-56 -34 -115 -34h-131q-60 0 -113 34q-43 31 -78 76q-26 35 -26 98v263q0 63 26 98q35 45 78 76q53 34 113 34h131q59 0 115 -34q41 -32 75 -76q27 -36 27 -98v-263zM1368 434
q0 8 -2 10q-27 33 -47 45q-3 3 -10 3h-107q-7 0 -10 -3q-27 -17 -47 -45l-2 -10v-229q0 -6 2 -10q20 -28 47 -45q3 -3 10 -3h107q7 0 10 3q20 12 47 45q2 2 2 10v229zM637 772q0 -62 -27 -98q-34 -44 -75 -76q-58 -35 -115 -35h-131q-59 0 -113 35q-43 31 -78 76
q-26 35 -26 98v262q0 64 26 99q11 15 35.5 38.5t42.5 36.5q54 35 113 35h131q57 0 115 -35q17 -13 40.5 -37t34.5 -38q27 -36 27 -99v-262zM467 1018q0 8 -2 10q-27 33 -47 45q-2 2 -10 2h-107q-8 0 -10 -2q-27 -17 -47 -45l-2 -10v-230q0 -6 2 -10q20 -28 47 -45
q2 -2 10 -2h107q8 0 10 2q20 12 47 45q2 2 2 10v230z" />
    <glyph glyph-name="ampersand" unicode="&#x26;" horiz-adv-x="1148" 
d="M659 197q14 0 41 24.5t41 48.5q2 5 2 15v301h267v-209h-58v-109q0 -71 -37 -123q-13 -20 -49.5 -56.5t-58.5 -51.5q-61 -45 -148 -45h-114v-2h-164q-79 0 -143 45q-22 15 -59.5 53.5t-51.5 58.5q-37 55 -37 125v160q0 57 20.5 95t61.5 79q-40 40 -61 79.5t-21 96.5v166
q0 70 37 125q14 21 52 59.5t59 53.5q64 45 143 45h201q134 0 262 -168q41 -59 51 -88l-209 -55q-22 33 -52 64t-48 40q-4 2 -11 2h-192q-13 0 -37.5 -23t-38.5 -47q-2 -4 -2 -10v-160q0 -6 2 -10q12 -23 36 -45t38 -22h262v-203h-262q-13 0 -37.5 -22.5t-36.5 -45.5l-2 -10
v-154l2 -10q14 -23 38.5 -45t37.5 -22h276z" />
    <glyph glyph-name="quotesingle" unicode="'" horiz-adv-x="475" 
d="M305 1024l-16 -139h-203l18 166v260h201v-287z" />
    <glyph glyph-name="parenleft" unicode="(" horiz-adv-x="706" 
d="M547 33l-156 -148q-15 15 -63.5 60.5t-73.5 70.5q-118 114 -148 156q-34 50 -34 119v627q0 66 34 116q37 53 136 148q18 17 49 46.5t55.5 53t44.5 43.5l154 -145q-4 -4 -79 -73t-128 -123.5t-53 -70.5v-618q0 -20 105 -120t157 -142z" />
    <glyph glyph-name="parenright" unicode=")" horiz-adv-x="724" 
d="M539 291q0 -70 -33 -119t-148 -156q-114 -106 -141 -133l-151 152q52 42 156 141t104 119v618q0 16 -53 70.5t-127.5 123t-77.5 71.5l149 145q8 -7 65.5 -58t88.5 -81q94 -90 135 -150q33 -49 33 -116v-627z" />
    <glyph glyph-name="asterisk" unicode="*" horiz-adv-x="935" 
d="M510 1296l-4 -231l223 78l53 -172l-219 -68l142 -186l-146 -105l-133 189l-133 -193l-146 107l138 184l-224 68l58 172l217 -76l-4 233h178z" />
    <glyph glyph-name="plus" unicode="+" horiz-adv-x="1052" 
d="M885 401h-291v-284h-199v284h-291v193h291v289h199v-289h291v-193z" />
    <glyph glyph-name="comma" unicode="," horiz-adv-x="555" 
d="M381 154l-152 -328h-229l182 389z" />
    <glyph glyph-name="hyphen" unicode="-" horiz-adv-x="653" 
d="M506 401h-455v193h455v-193z" />
    <glyph glyph-name="period" unicode="." horiz-adv-x="546" 
d="M344 0h-252v258h252v-258z" />
    <glyph glyph-name="slash" unicode="/" horiz-adv-x="905" 
d="M856 1225l-666 -1225h-235l668 1225h233z" />
    <glyph glyph-name="zero" unicode="0" horiz-adv-x="1062" 
d="M924 291q0 -68 -33 -117q-22 -31 -70.5 -80.5t-79.5 -66.5q-61 -37 -125 -37h-227q-66 0 -127 37q-30 17 -78.5 67t-70.5 80q-33 49 -33 117v641q0 68 33 117q22 30 70.5 80t78.5 67q61 37 127 37h227q64 0 125 -37q31 -17 79.5 -66.5t70.5 -80.5q33 -49 33 -117v-641z
M295 928v-635q0 -6 2 -8q19 -28 45 -53.5t45 -34.5q4 -2 10 -2h211q6 0 10 2q18 9 44.5 35t44.5 53l2 8v635q0 8 -2 10q-18 27 -44.5 53t-44.5 35q-4 2 -10 2h-211q-8 0 -10 -2q-19 -9 -45 -34.5t-45 -53.5z" />
    <glyph glyph-name="one" unicode="1" horiz-adv-x="1062" 
d="M659 0h-215v1018h-243v207h458v-1225z" />
    <glyph glyph-name="two" unicode="2" horiz-adv-x="1062" 
d="M621 1026h-207q-9 0 -13 -2q-27 -15 -56.5 -44t-41.5 -62l-205 61q17 48 43 82q130 170 265 170h217q80 0 143 -47q23 -15 61 -52.5t52 -58.5q36 -53 36 -125v-131q0 -73 -42.5 -130t-108.5 -91l-404 -209q-32 -17 -32 -43v-139h573v-205h-788v352q0 139 153 219l408 211
q26 13 26 41v125l-2 10q-14 24 -38 46t-39 22z" />
    <glyph glyph-name="three" unicode="3" horiz-adv-x="1062" 
d="M678 274v166q0 7 -2 11q-12 23 -36 45t-38 22h-2h-260v203h260h2q14 0 38 22t36 45l2 11v147l-2 10q-14 24 -38.5 46t-37.5 22h-233q-5 0 -9 -2q-26 -13 -57.5 -41.5t-42.5 -62.5l-209 57q22 49 49 88q132 168 262 168h242q79 0 143 -45q21 -15 59 -53.5t52 -59.5
q37 -55 37 -125v-153q0 -57 -20.5 -95t-61.5 -79q40 -40 61 -79.5t21 -97.5v-172q0 -70 -37 -125q-14 -20 -51.5 -58.5t-59.5 -53.5q-64 -45 -143 -45h-242q-134 0 -262 168q-41 59 -51 88l209 55q22 -33 52 -64t48 -40q4 -2 11 -2h233q13 0 37.5 22.5t38.5 46.5q2 4 2 10z
" />
    <glyph glyph-name="four" unicode="4" horiz-adv-x="1062" 
d="M918 244h-125v-244h-215v244h-549v184l516 797h248v-776h125v-205zM578 449v464l-297 -464h297z" />
    <glyph glyph-name="five" unicode="5" horiz-adv-x="1062" 
d="M899 272q0 -70 -37 -125q-14 -22 -51 -60t-59 -52q-61 -45 -146 -45h-225q-135 0 -264 168q-31 44 -47 88l209 55q18 -34 46 -64t48 -40q4 -2 14 -2h217q8 0 12 2q43 26 66 67q2 4 2 10v207l-2 11q-22 42 -66 69q-4 2 -12 2h-483v662h719v-205h-504v-252h270
q84 0 146 -49q23 -15 59.5 -50.5t50.5 -56.5q37 -55 37 -127v-213z" />
    <glyph glyph-name="six" unicode="6" horiz-adv-x="1062" 
d="M307 965q-6 -6 -6 -23v-213q72 62 119 62h201q80 0 141 -43q22 -15 60.5 -53t51.5 -58q37 -55 37 -127v-238q0 -70 -37 -125q-14 -20 -52 -58.5t-60 -53.5q-61 -45 -141 -45h-244q-80 0 -141 45q-22 15 -61 53.5t-52 58.5q-37 55 -37 123v678q0 70 37 125q13 20 52 59
t61 54q61 45 141 45h221q133 0 260 -168q35 -51 51 -90l-209 -58l-4 9q-14 30 -42.5 59t-49.5 39q-8 4 -12 4h-211q-9 0 -27.5 -15t-32.5 -31zM696 508l-2 12q-14 25 -38.5 47.5t-37.5 22.5h-192q-26 0 -33 -6q-74 -53 -92 -88v-203l2 -29q14 -24 38.5 -46.5t39.5 -22.5h237
q13 0 37.5 22t38.5 45q2 4 2 27v219z" />
    <glyph glyph-name="seven" unicode="7" horiz-adv-x="1062" 
d="M936 1057l-504 -1057h-244l502 1020h-604v205h850v-168z" />
    <glyph glyph-name="eight" unicode="8" horiz-adv-x="1062" 
d="M901 272q0 -70 -37 -125q-14 -21 -52 -59.5t-60 -52.5q-61 -45 -142 -45h-22h-193h-22q-83 0 -144 45q-22 15 -60.5 53.5t-51.5 58.5q-37 55 -37 125v168q0 58 21.5 97.5t62.5 78.5q-41 40 -62.5 78.5t-21.5 96.5v159q0 70 37 125q14 20 52 59t60 54q61 45 144 45h237
q81 0 142 -45q22 -14 60 -53t52 -60q37 -55 37 -125v-159q0 -57 -21 -96t-61 -79q40 -40 61 -79.5t21 -96.5v-168zM684 780q2 3 2 11v159l-2 11q-14 23 -38.5 45t-37.5 22h-233q-15 0 -39.5 -21.5t-38.5 -45.5q-2 -5 -2 -11v-159l2 -11q12 -23 36.5 -45t39.5 -22h3h3h3h3h3
h3h3h2h3h3h3h3h3h3h3h3h3h3h3h3h3h3h3h2h3h3h3h3h3h3h3h3h3h3h3h3h3h2h3h3h3h3h3h3h3h3h3h3h3h3h3h2h3h3h3h3h3h3h3h3h3h3h3h3h2h3h3h3h3h3h3h3h3h3h3h2h3h3h9q14 0 38 22t36 45zM684 260q2 2 2 10v164l-2 10q-14 23 -39.5 45.5t-38.5 22.5h-233q-14 0 -38 -22t-38 -46
q-2 -4 -2 -10v-164l2 -10q12 -23 35.5 -44t38.5 -21h3h3h3h3h3h2h3h3h3h3h3h3h3h3h3h3h2h3h3h3h3h3h3h3h3h3h3h2h3h3h3h3h3h3h3h3h3h2h3h3h3h3h3h3h3h3h3h2h3h3h3h3h3h3h3h3h3h2h3h3h3h3h3h3h3h2h3h3h3h3h3h3h3h2h3h3h3h3h3h2h8q14 0 38 21t36 44z" />
    <glyph glyph-name="nine" unicode="9" horiz-adv-x="1062" 
d="M686 260q2 4 2 16v218q-72 -64 -117 -64h-200q-83 0 -144 43q-22 15 -60.5 53t-51.5 58q-37 55 -37 125v239q0 70 37 125q14 20 52 59t60 54q61 45 144 45h241q81 0 142 -45q22 -14 60 -53t52 -60q37 -55 37 -123v-678q0 -70 -37 -125q-14 -21 -52 -59.5t-60 -52.5
q-61 -45 -142 -45h-219q-134 0 -262 168q-33 48 -51 92l209 55l4 -10q13 -30 41 -58t51 -38q8 -4 14 -4h211q14 0 38.5 21t37.5 44zM688 725v223l-2 10q-14 24 -38.5 46t-37.5 22h-237q-15 0 -38.5 -20t-37.5 -43q-2 -4 -2 -19l-2 -233l2 -11q14 -25 38.5 -47t39.5 -22h190
q29 0 37 6q70 53 88 88z" />
    <glyph glyph-name="colon" unicode=":" horiz-adv-x="546" 
d="M344 510h-252v258h252v-258zM344 0h-252v258h252v-258z" />
    <glyph glyph-name="semicolon" unicode=";" horiz-adv-x="546" 
d="M365 508h-252v258h252v-258zM375 154l-152 -328h-229l182 389z" />
    <glyph glyph-name="less" unicode="&#x3c;" horiz-adv-x="1478" 
d="M1284 510h-930l533 -508h-283l-631 606l631 611h283l-539 -510h936v-199z" />
    <glyph glyph-name="equal" unicode="=" horiz-adv-x="995" 
d="M823 580h-764v190h764v-190zM823 272h-764v189h764v-189z" />
    <glyph glyph-name="greater" unicode="&#x3e;" horiz-adv-x="1478" 
d="M1368 608l-633 -606h-280l530 508h-928v199h934l-538 510h282z" />
    <glyph glyph-name="question" unicode="?" horiz-adv-x="950" 
d="M885 809q0 -72 -42 -129.5t-106 -89.5q-5 -2 -29 -12.5t-43 -20t-41.5 -22.5t-35.5 -26.5t-13 -25.5v-149h-215v158q0 31 7.5 58t19 48t31.5 41.5t37.5 33.5t45.5 29.5t46 25.5t49.5 23.5t46.5 22.5q27 14 27 41v133l-2 10q-14 24 -38 46t-38 22h-230q-7 0 -16 -6
q-21 -14 -47 -39.5t-39 -48.5l-8 -14l-203 59q23 49 47 86q47 69 114 118.5t146 49.5h244q80 0 143 -47q21 -14 56 -51t49 -58q37 -55 37 -125v-141zM592 0h-248v240h248v-240z" />
    <glyph glyph-name="at" unicode="@" horiz-adv-x="1312" 
d="M504 -145l31 -195h-154q-66 0 -127 37q-30 17 -79.5 67t-70.5 80q-32 47 -32 117v971q0 70 32 117q21 30 70.5 80t79.5 67q61 37 127 37h440q66 0 127 -37q29 -17 77 -65.5t73 -81.5q32 -47 32 -117v-750l17 -182h-205l-4 45q-70 -55 -133 -55h-86q-87 0 -148 45
q-23 17 -54.5 49t-43.5 51q-37 53 -37 127v348q0 76 37 127q14 20 44.5 52.5t53.5 48.5q61 43 148 43h86q55 0 121 -47v92q0 8 -2 10q-18 27 -50.5 59t-50.5 41q-4 2 -10 2h-424q-8 0 -10 -2q-18 -9 -50 -41t-50 -59l-3 -10v-963q1 -6 3 -8q18 -27 50 -58t50 -40q4 -2 10 -2
h115zM926 276v320q-23 27 -66.5 60.5t-60.5 33.5h-78q-10 0 -12 -2q-39 -24 -66 -72q-2 -4 -2 -10v-340l2 -12q25 -45 66 -70q8 -4 12 -4h78q16 0 60 34.5t67 61.5z" />
    <glyph glyph-name="A" unicode="A" horiz-adv-x="1124" 
d="M1055 0h-230l-90 260h-465l-90 -260h-229l428 1225h250zM668 465l-164 483l-166 -483h330z" />
    <glyph glyph-name="B" unicode="B" 
d="M956 279q0 -73 -34 -123q-14 -21 -51 -58.5t-58 -52.5q-64 -45 -147 -45h-576v1225h576q81 0 147 -47q21 -15 58 -52.5t51 -58.5q34 -49 34 -127v-152q0 -60 -19.5 -99t-59.5 -79q40 -40 59.5 -78.5t19.5 -97.5v-155zM739 778q2 5 2 15v145l-2 10q-14 25 -38 48.5
t-37 23.5h-359v-309h361q14 0 38.5 22t34.5 45zM739 272q2 7 2 15v145l-2 10q-14 25 -38 47.5t-37 22.5h-359v-307h361q14 0 38.5 22t34.5 45z" />
    <glyph glyph-name="C" unicode="C" horiz-adv-x="1132" 
d="M958 238q-18 -43 -43 -78q-125 -170 -260 -170h-256q-66 0 -127 37q-31 18 -80 66.5t-69 78.5q-33 49 -33 117v645q0 66 33 115q22 30 70.5 80t78.5 67q68 37 127 37h256q131 0 260 -170q17 -25 43 -72l-208 -59q-62 76 -93 94q-2 2 -8 2h-241l-9 -2q-21 -11 -49 -38.5
t-43 -51.5q-2 -4 -2 -23v-622q0 -17 33.5 -48.5t60.5 -45.5q2 -2 15 -2h233q6 0 10 2q19 9 42.5 33t36.5 44l14 19z" />
    <glyph glyph-name="D" unicode="D" horiz-adv-x="1153" 
d="M956 297q0 -73 -30 -117q-20 -30 -70 -77.5t-82 -65.5q-68 -37 -123 -37h-561v1225h561q72 0 125 -35q31 -18 78 -68t70 -82q32 -44 32 -116v-627zM305 205h332q12 0 14 2q26 14 58 45.5t32 48.5v617q0 6 -2 10q-18 29 -44 54.5t-46 35.5q-2 2 -18 2h-326v-815z" />
    <glyph glyph-name="E" unicode="E" horiz-adv-x="1056" 
d="M860 0h-770v1225h770v-205h-555v-309h516v-205h-516v-301h555v-205z" />
    <glyph glyph-name="F" unicode="F" horiz-adv-x="1011" 
d="M858 1020h-553v-309h516v-205h-516v-506h-215v1225h768v-205z" />
    <glyph glyph-name="G" unicode="G" horiz-adv-x="1224" 
d="M305 932v-641q0 -17 33.5 -48t60.5 -46q1 0 4 -1t7 -1h278l10 2q25 14 60 48.5t35 51.5v199h-265v204h480v-413q14 -135 39 -287h-211l-11 49q-1 -1 -11.5 -8t-14.5 -10t-14.5 -9.5t-16.5 -9.5t-16.5 -8t-18 -7.5t-17 -4.5t-18.5 -2h-299q-66 0 -127 37q-31 18 -80 66
t-69 77q-33 49 -33 119v647q0 68 33 117q22 30 70.5 80t78.5 67q58 35 127 35h299q141 0 260 -170q33 -48 43 -72l-206 -59q-46 61 -97 94q-2 2 -10 2h-278l-11 -2q-19 -10 -47 -35.5t-45 -52.5z" />
    <glyph glyph-name="H" unicode="H" horiz-adv-x="1171" 
d="M967 0h-215v506h-447v-506h-215v1225h215v-514h447v514h215v-1225z" />
    <glyph glyph-name="I" unicode="I" horiz-adv-x="509" 
d="M305 0h-215v1225h215v-1225z" />
    <glyph glyph-name="J" unicode="J" horiz-adv-x="966" 
d="M756 289q0 -65 -35 -117q-22 -31 -69.5 -79.5t-76.5 -65.5q-65 -37 -126 -37h-152q-136 0 -262 170q-11 15 -41 78l207 55q14 -32 38 -59t44 -37q1 -1 3 -1t4.5 -0.5t5.5 -0.5h3h139q10 -1 56.5 43t46.5 53v934h215v-936z" />
    <glyph glyph-name="K" unicode="K" horiz-adv-x="1103" 
d="M1016 0h-264l-424 512h-23v-512h-215v1225h215v-510h21q74 88 216 260t208 250h264l-510 -611q53 -63 239.5 -288.5t272.5 -325.5z" />
    <glyph glyph-name="L" unicode="L" horiz-adv-x="983" 
d="M848 0h-758v1225h215v-1020h543v-205z" />
    <glyph glyph-name="M" unicode="M" horiz-adv-x="1353" 
d="M1149 0h-215v838l-244 -537h-141l-244 535v-836h-215v1225h246l287 -604l282 604h244v-1225z" />
    <glyph glyph-name="N" unicode="N" horiz-adv-x="1161" 
d="M956 0h-227l-424 813v-813h-215v1225h232l419 -824v824h215v-1225z" />
    <glyph glyph-name="O" unicode="O" horiz-adv-x="1206" 
d="M1022 291q0 -68 -33 -117q-26 -33 -73 -81.5t-76 -65.5q-61 -37 -127 -37h-312q-66 0 -127 37q-30 17 -78.5 67t-70.5 80q-33 49 -33 117v641q0 68 33 117q22 30 70.5 80t78.5 67q61 37 127 37h312q66 0 127 -37q29 -17 76 -65.5t73 -81.5q33 -49 33 -117v-641zM307 926
v-633q0 -6 2 -8q18 -27 45 -53t45 -35q4 -2 11 -2h295q6 0 10 2q18 9 45 35t45 53l2 8v633q0 8 -2 10q-18 27 -45 54t-45 36q-4 2 -10 2h-295q-9 0 -11 -2q-18 -9 -45 -36t-45 -54z" />
    <glyph glyph-name="P" unicode="P" horiz-adv-x="1099" 
d="M958 762q0 -72 -36 -125q-13 -20 -51 -57t-60 -52q-62 -45 -145 -45h-361v-483h-215v1225h576q81 0 145 -45q21 -15 59 -53.5t52 -59.5q36 -53 36 -125v-180zM743 764v176q0 10 -2 14q-11 20 -31 42.5t-34 23.5h-10h-361v-332h361q13 0 38 23t37 45q2 4 2 8z" />
    <glyph glyph-name="Q" unicode="Q" horiz-adv-x="1214" 
d="M307 932v-633q0 -6 2 -8q19 -28 46 -56.5t44 -37.5q4 -2 11 -2h47l-13 30l197 66l41 -96h27q6 0 10 2q35 18 86 94l2 8v633q0 6 -2 8q-18 27 -43 52t-43 34q-4 2 -10 2h-299q-9 0 -11 -2q-19 -10 -45.5 -35t-44.5 -51zM758 -6l2 -4l80 -178h-228l-75 178h-136
q-66 0 -127 37q-30 17 -78.5 67t-70.5 80q-33 49 -33 117v641q0 68 33 117q22 30 70.5 80t78.5 67q61 37 127 37h312q66 0 127 -37q29 -17 76 -65.5t73 -81.5q33 -49 33 -117v-641q0 -68 -33 -117q-26 -33 -73 -81.5t-76 -65.5q-58 -30 -82 -33z" />
    <glyph glyph-name="R" unicode="R" horiz-adv-x="1185" 
d="M958 762q0 -72 -36 -125q-13 -20 -51 -57t-60 -52q-25 -19 -53 -28l243 -500h-233l-227 483h-236v-483h-215v1225h576q81 0 145 -45q21 -15 59 -53.5t52 -59.5q36 -53 36 -125v-180zM743 764v176q0 10 -2 14q-11 20 -31 42.5t-34 23.5h-371v-332h361q13 0 38 23t37 45
q2 4 2 8z" />
    <glyph glyph-name="S" unicode="S" horiz-adv-x="1169" 
d="M995 291q0 -73 -32 -117q-20 -30 -70 -79.5t-80 -67.5q-68 -37 -127 -37h-356q-135 0 -260 170q-17 25 -37 63l203 68q41 -57 90 -94q4 -2 14 -2h336l12 2q23 12 57.5 47t34.5 47v121q0 13 -8 22.5t-16 11.5l-533 152q-75 21 -117.5 84.5t-42.5 138.5v111q0 71 31 117
q20 30 70.5 79.5t81.5 67.5q68 37 127 37h303q44 0 84 -15.5t73.5 -44.5t55.5 -53t47 -57q24 -35 41 -72l-207 -59q-47 67 -90 94q-2 2 -12 2h-289l-12 -2q-24 -12 -56 -45t-32 -45v-102q0 -13 7 -23t15 -12l535 -156q74 -21 116.5 -85t42.5 -138v-129z" />
    <glyph glyph-name="T" unicode="T" horiz-adv-x="1032" 
d="M903 1020h-332v-1020h-215v1020h-331v205h878v-205z" />
    <glyph glyph-name="U" unicode="U" 
d="M733 293v932h215v-934q0 -68 -33 -117q-23 -32 -70.5 -81t-78.5 -66q-61 -37 -125 -37h-260q-66 0 -127 37q-30 17 -79.5 67t-70.5 80q-32 47 -32 117v934h215v-930q0 -8 2 -10q19 -28 45 -53.5t45 -34.5l10 -2h244q6 0 10 2q18 9 44 35t44 53z" />
    <glyph glyph-name="V" unicode="V" horiz-adv-x="1071" 
d="M1010 1225l-406 -1225h-252l-403 1225h229l301 -949l303 949h228z" />
    <glyph glyph-name="W" unicode="W" horiz-adv-x="1511" 
d="M1438 1225l-285 -1225h-244l-196 821l-199 -821h-246l-280 1225h221l184 -860l203 860h229l203 -860l182 860h228z" />
    <glyph glyph-name="X" unicode="X" horiz-adv-x="1089" 
d="M981 1225l-371 -598l391 -627h-239l-270 436l-269 -436h-239l389 627l-369 598h238l250 -408l251 408h238z" />
    <glyph glyph-name="Y" unicode="Y" horiz-adv-x="1064" 
d="M987 1225l-405 -690v-535h-215v535l-402 690h238l272 -465l273 465h239z" />
    <glyph glyph-name="Z" unicode="Z" horiz-adv-x="1005" 
d="M866 0h-807v174l539 846h-539v205h807v-178l-530 -842h530v-205z" />
    <glyph glyph-name="bracketleft" unicode="[" horiz-adv-x="663" 
d="M494 0h-404v1225h404v-195h-189v-835h189v-195z" />
    <glyph glyph-name="backslash" unicode="\" horiz-adv-x="892" 
d="M864 0h-239l-668 1229h238z" />
    <glyph glyph-name="bracketright" unicode="]" horiz-adv-x="673" 
d="M469 0h-403v195h188v835h-188v195h403v-1225z" />
    <glyph glyph-name="asciicircum" unicode="^" horiz-adv-x="706" 
d="M-20 575l223 654h196l232 -654h-199l-129 394l-127 -394h-196z" />
    <glyph glyph-name="underscore" unicode="_" horiz-adv-x="946" 
d="M858 -193h-797v193h797v-193z" />
    <glyph glyph-name="grave" unicode="`" horiz-adv-x="780" 
d="M618 1055l-188 -56l-242 299h242z" />
    <glyph glyph-name="a" unicode="a" horiz-adv-x="980" 
d="M598 555v70q0 8 -2 10q-22 36 -66 61q-8 4 -12 4h-180q-16 0 -42.5 -22.5t-39.5 -40.5l-193 57q14 33 59 82t75 70q71 49 147 49h176q86 0 150 -45q25 -18 56 -48t42 -48q35 -47 35 -127v-447l20 -180h-202l-11 41q-70 -51 -127 -51h-168q-83 0 -147 45
q-23 17 -53.5 47.5t-42.5 48.5q-37 51 -37 125v37q0 74 37 125q12 17 42 45.5t54 46.5q64 45 147 45h283zM598 266v107h-281q-8 0 -14 -4q-36 -22 -61 -66q-2 -4 -2 -6v-39l2 -6q26 -46 63 -64q8 -4 12 -4h160q16 0 61 32.5t60 49.5z" />
    <glyph glyph-name="b" unicode="b" horiz-adv-x="1003" 
d="M846 262q0 -74 -37 -127q-12 -19 -43.5 -51t-54.5 -49q-61 -45 -148 -45h-151q-63 0 -133 55l-7 -45h-202l16 182v1043h205v-377q66 47 121 47h151q87 0 148 -43q23 -16 53.5 -48t44.5 -52q37 -51 37 -127v-363zM641 266v355l-2 10q-23 41 -66 67q-2 2 -14 2h-141
q-18 0 -61.5 -32t-65.5 -58v-334q22 -26 66.5 -59t60.5 -33h143q4 0 12 4q44 27 66 66q2 4 2 12z" />
    <glyph glyph-name="c" unicode="c" horiz-adv-x="960" 
d="M276 260q1 -6 5 -12q19 -34 65 -60q8 -4 12 -4h201q13 0 38 19.5t38 34.5q2 2 6 8l190 -58q-14 -34 -58 -82.5t-73 -68.5q-68 -47 -147 -47h-197q-88 0 -149 43q-23 17 -54.5 49t-43.5 51q-37 50 -37 125v369q0 75 37 125q12 19 43.5 51t54.5 49q61 43 149 43h195
q79 0 147 -47q35 -25 75 -69.5t56 -82.5l-190 -57l-6 8q-12 14 -37.5 33.5t-38.5 19.5h-199l-12 -4q-47 -26 -65 -59l-5 -12v-365z" />
    <glyph glyph-name="d" unicode="d" horiz-adv-x="1013" 
d="M844 0h-201l-8 45q-70 -55 -133 -55h-148q-86 0 -147 45q-23 17 -54.5 49t-43.5 51q-37 53 -37 127v363q0 76 37 127q14 20 44.5 52t53.5 48q61 43 147 43h148q55 0 121 -47v377h204v-1043zM623 276v334q-22 26 -65.5 58t-61.5 32h-140q-10 0 -12 -2q-18 -11 -36.5 -30
t-28.5 -37q-3 -4 -3 -10v-355l3 -12q22 -40 65 -66q8 -4 12 -4h140q16 0 60.5 33t66.5 59z" />
    <glyph glyph-name="e" unicode="e" horiz-adv-x="989" 
d="M831 344h-555v-84l3 -10q14 -23 39 -44.5t40 -21.5h199q13 0 38 19.5t38 34.5l6 8l190 -58q-14 -34 -58 -82.5t-73 -68.5q-68 -47 -147 -47h-193q-88 0 -149 43q-23 17 -54.5 48.5t-43.5 49.5q-39 53 -39 127v369q0 72 39 125q12 18 43.5 49.5t54.5 48.5q64 45 149 45
h189q85 0 149 -45q24 -18 55.5 -49t43.5 -49q36 -48 36 -125v-283zM627 526v97q0 10 -2 12q-9 15 -29 34t-39 29q-4 2 -12 2h-187q-15 0 -40 -21t-39 -44l-3 -12v-97h351z" />
    <glyph glyph-name="f" unicode="f" horiz-adv-x="696" 
d="M629 1040l-191 -2q-14 0 -22 -4q-17 -10 -38 -28.5t-22 -30.5v-90h224v-195h-224v-690h-204v690h-138v195h138v78q0 79 36 127q13 19 44.5 50.5t54.5 47.5q64 45 149 45h193v-193z" />
    <glyph glyph-name="g" unicode="g" horiz-adv-x="1021" 
d="M860 885l-18 -185v-774q0 -82 -35 -129q-12 -18 -43 -49t-55 -49q-64 -45 -150 -45h-180q-77 0 -148 49q-29 20 -73 69t-58 83l191 57q2 -4 6 -8q13 -16 38 -36t38 -20h184q2 0 12 5q17 9 42 30.5t26 32.5v14v111q-69 -49 -121 -49h-158q-85 0 -149 45q-23 16 -53.5 48
t-44.5 52q-37 50 -37 127v359q0 77 37 127q14 20 44.5 52t53.5 48q64 45 149 45h158q65 0 135 -55l8 45h201zM360 186h150q10 0 14 2q26 13 58.5 40t54.5 53v323q-90 96 -127 96h-150q-4 0 -12 -4q-45 -27 -67 -67l-2 -11v-350q0 -8 2 -12q23 -41 67 -68q4 -2 12 -2z" />
    <glyph glyph-name="h" unicode="h" horiz-adv-x="993" 
d="M618 0v621l-2 10q-10 18 -28.5 37t-36.5 30q-2 2 -12 2h-142q-19 0 -61.5 -33t-63.5 -59v-608h-204v1225h204v-379q69 49 121 49h148q86 0 147 -45q23 -16 53.5 -48t44.5 -52q37 -53 37 -125v-625h-205z" />
    <glyph glyph-name="i" unicode="i" horiz-adv-x="460" 
d="M301 1010h-219v219h219v-219zM295 0h-205v885h205v-885z" />
    <glyph glyph-name="j" unicode="j" horiz-adv-x="475" 
d="M334 1010h-219v219h219v-219zM-127 -147h166l12 2q51 31 70 71q2 7 2 11v948h205v-951q0 -76 -37 -129q-13 -19 -45.5 -51.5t-55.5 -48.5q-61 -43 -145 -43h-172v191z" />
    <glyph glyph-name="k" unicode="k" horiz-adv-x="901" 
d="M850 0h-262l-279 373h-37v-373h-204v1225h204v-660h39q17 20 44 53.5t85 103.5t96 116.5t37 46.5h254l-340 -414z" />
    <glyph glyph-name="l" unicode="l" horiz-adv-x="471" 
d="M313 0h-207l-24 158v1067h205v-1045z" />
    <glyph glyph-name="m" unicode="m" horiz-adv-x="1466" 
d="M1296 0h-204v623q0 6 -2 12q-18 35 -64 63q-4 2 -16 2h-95q-42 0 -118 -82v-618h-2h-201h-2v623q0 8 -2 12q-17 32 -68 63q-4 2 -16 2h-94q-13 0 -26 -4.5t-22.5 -10.5t-22 -17t-18.5 -17t-17.5 -19t-14.5 -16v-616h-205v702l-20 183h200l10 -47q78 57 130 57h102
q85 0 149 -45q28 -21 60 -53l45 34q31 24 73 44t74 20h103q85 0 149 -45q24 -18 55.5 -49t43.5 -49q36 -48 36 -125v-627z" />
    <glyph glyph-name="n" unicode="n" horiz-adv-x="1013" 
d="M844 0h-205v623q0 8 -2 12q-18 35 -64 63q-2 2 -16 2h-143q-43 0 -121 -84v-616h-205v702l-20 183h200l11 -47q78 57 129 57h151q86 0 150 -45q24 -18 55 -49t43 -49q37 -50 37 -125v-627z" />
    <glyph glyph-name="o" unicode="o" horiz-adv-x="987" 
d="M829 258q0 -79 -34 -125q-12 -19 -43.5 -51t-55.5 -49q-61 -43 -149 -43h-193q-86 0 -147 43q-24 18 -56.5 50t-44.5 50q-34 46 -34 125v369q0 79 34 125q11 18 43.5 48.5t57.5 49.5q64 45 147 45h193q85 0 149 -45q24 -18 55.5 -49t43.5 -49q34 -46 34 -125v-369z
M276 621v-373q0 -11 22.5 -30t45.5 -32q4 -2 12 -2h189q4 0 12 4q18 10 42.5 29.5t25.5 30.5v373q0 6 -2 12q-9 16 -29.5 35.5t-38.5 29.5q-4 2 -10 2h-189q-6 0 -10 -2q-45 -25 -67 -65z" />
    <glyph glyph-name="p" unicode="p" horiz-adv-x="1005" 
d="M844 260q0 -76 -37 -127q-14 -20 -44.5 -52t-53.5 -48q-61 -43 -148 -43h-149q-55 0 -121 47v-371h-205v1036l-18 183h202l9 -45q70 55 133 55h149q87 0 148 -45q23 -17 54.5 -49t43.5 -51q37 -53 37 -127v-363zM639 264v354l-2 13q-21 38 -66 65q-8 4 -12 4h-141
q-16 0 -60.5 -33t-66.5 -59v-334q22 -26 65.5 -58t61.5 -32h141q8 0 12 2q42 26 66 68q2 4 2 10z" />
    <glyph glyph-name="q" unicode="q" horiz-adv-x="1017" 
d="M848 885l-19 -183v-1036h-204v371q-66 -47 -121 -47h-150q-86 0 -147 43q-23 16 -53.5 48t-44.5 52q-37 51 -37 127v363q0 74 37 127q12 19 43.5 51t54.5 49q61 45 147 45h150q63 0 133 -55l10 45h201zM625 274v334q-22 26 -66.5 59t-60.5 33h-142q-4 0 -12 -4
q-43 -26 -65 -65q-3 -7 -3 -13v-354l3 -10q24 -43 65 -68l4 -1q3 -1 8 -1h142q18 0 61.5 32t65.5 58z" />
    <glyph glyph-name="r" unicode="r" horiz-adv-x="851" 
d="M807 696l-191 -57q-15 20 -41 40.5t-51 20.5h-110q-54 0 -125 -88v-612h-205v702l-16 183h198l10 -49q81 59 132 59h122q79 0 152 -51q33 -24 72 -69t53 -79z" />
    <glyph glyph-name="s" unicode="s" horiz-adv-x="960" 
d="M225 240q12 -14 37.5 -34.5t38.5 -21.5h238q19 0 46 26.5t27 47.5v49q0 27 -26 29l-148.5 11t-187.5 15q-86 6 -139.5 60t-53.5 149v62q0 74 37 125q95 137 238 137h196q80 0 148 -47q35 -25 76 -69.5t57 -82.5l-193 -57q-2 4 -6 8q-13 15 -37.5 34t-37.5 19h-197
q-19 0 -27 -4q-9 -4 -24 -18t-23 -29q-2 -4 -2 -20v-49q0 -6 9 -16t22 -11q24 -3 142 -14t179 -17q90 -10 146.5 -62.5t56.5 -148.5v-57q0 -72 -39 -125q-13 -20 -40.5 -48.5t-51.5 -45.5q-64 -45 -145 -45h-234q-76 0 -147 49q-35 25 -75 69t-56 82l190 58z" />
    <glyph glyph-name="t" unicode="t" horiz-adv-x="716" 
d="M342 690v-416q0 -8 2 -12q11 -21 35.5 -44t44.5 -23h170v-195h-172q-87 0 -148 43q-23 16 -53.5 48t-44.5 52q-39 56 -39 129v418h-137v195h137v340h205v-340h254v-195h-254z" />
    <glyph glyph-name="u" unicode="u" horiz-adv-x="999" 
d="M840 0h-201l-8 51q-81 -59 -129 -59h-154q-88 0 -149 43q-24 17 -55.5 49t-43.5 51q-37 50 -37 125v625h205v-621q0 -10 2 -14q16 -30 68 -62q4 -2 12 -2h146q14 0 56 29.5t64 52.5v617h205v-703z" />
    <glyph glyph-name="v" unicode="v" horiz-adv-x="880" 
d="M829 885l-319 -885h-217l-326 885h230l206 -600l209 600h217z" />
    <glyph glyph-name="w" unicode="w" horiz-adv-x="1351" 
d="M1282 885l-274 -885h-209l-166 555l-170 -555h-209l-270 885h217l164 -572l161 572h215l158 -572l168 572h215z" />
    <glyph glyph-name="x" unicode="x" horiz-adv-x="909" 
d="M844 0h-242l-186 274l-187 -274h-243l307 453l-297 432h244l176 -260l170 260h243l-292 -434z" />
    <glyph glyph-name="y" unicode="y" horiz-adv-x="880" 
d="M829 885l-434 -1217h-207l123 332h-18l-326 885h230l206 -600l209 600h217z" />
    <glyph glyph-name="z" unicode="z" horiz-adv-x="909" 
d="M776 0h-704v166l407 524h-424v195h701v-168l-410 -522h430v-195z" />
    <glyph glyph-name="braceleft" unicode="{" horiz-adv-x="718" 
d="M301 932v-641q0 -17 35 -49t61 -47q2 -2 13 -2h139v-201h-156q-55 0 -123 37q-31 18 -80.5 65t-68.5 76q-31 45 -31 119v647q0 72 33 117q22 31 69 79.5t76 65.5q58 35 125 35h156v-201h-146l-12 -2q-18 -10 -44 -35t-44 -53z" />
    <glyph glyph-name="bar" unicode="|" horiz-adv-x="485" 
d="M281 -188h-201v1554h201v-1554z" />
    <glyph glyph-name="braceright" unicode="}" horiz-adv-x="731" 
d="M526 936v-647q0 -75 -30 -119q-19 -29 -69 -76t-81 -65q-68 -37 -125 -37h-155v201h145l8 2q22 11 59 49.5t37 46.5v641q0 11 -36 48t-60 50q-2 2 -6 2h-147v201h155q67 0 125 -35q30 -17 78.5 -66t69.5 -79q32 -47 32 -117z" />
    <glyph glyph-name="asciitilde" unicode="~" horiz-adv-x="946" 
d="M793 451l-195 -60q-25 59 -61 51l-218 -47q-87 -16 -163 29.5t-117 148.5l192 60q13 -30 30 -43t32 -10l219 45q88 16 164 -27.5t117 -146.5z" />
    <glyph glyph-name="nbspace" unicode="&#xa0;" horiz-adv-x="409" 
 />
    <glyph glyph-name="exclamdown" unicode="&#xa1;" horiz-adv-x="534" 
d="M330 997h-232v228h232v-228zM319 0h-210v885h210v-885z" />
    <glyph glyph-name="cent" unicode="&#xa2;" horiz-adv-x="933" 
d="M395 -334v324h-39q-88 0 -149 43q-23 17 -54.5 49t-43.5 51q-37 50 -37 125v369q0 75 37 125q12 18 43 49t55 49q64 45 149 45h39l2 328h119l-2 -328h51q74 0 148 -51q29 -20 74 -69t59 -83l-193 -57q-2 4 -6 8q-14 16 -38.5 36.5t-37.5 20.5h-57v-516h66q13 0 37.5 19.5
t37.5 34.5q3 2 7 8l190 -58q-14 -34 -58 -82.5t-73 -68.5q-68 -47 -148 -47h-59v-324h-119zM276 623v-363q1 -6 5 -12q19 -34 65 -60q8 -4 12 -4h37v516h-37q-8 0 -12 -2q-48 -27 -67 -61z" />
    <glyph glyph-name="sterling" unicode="&#xa3;" horiz-adv-x="1204" 
d="M840 319l200 -61q-5 -18 -19.5 -46.5t-27.5 -45.5q-49 -67 -116 -116.5t-144 -49.5h-577v358h-80v193h80v49h-80v193h80v116q0 74 30 115q21 30 69.5 79t78.5 66q68 37 125 37h293v-205h-285l-10 -2q-20 -11 -44 -34.5t-40 -49.5q-2 -4 -2 -18v-104h430v-193h-430v-49
h430v-193h-430v-153h356q10 0 12 2q45 22 90 92z" />
    <glyph glyph-name="currency" unicode="&#xa4;" 
d="M442 334q-31 0 -45 2l-98 -98l-141 141l69 70l-12 18q-43 61 -43 149v21q0 86 43 147q2 3 8 10.5t8 10.5l-69 72l133 137l96 -99q23 5 51 5h207q27 0 47 -5l99 99l137 -142l-72 -73q2 -2 6 -7.5t6 -7.5q46 -65 46 -147v-21q0 -84 -46 -149q-2 -3 -7 -9t-7 -9l74 -74
l-137 -137l-99 98q-16 -2 -47 -2h-207zM659 727h-243q-11 0 -32.5 -24t-33.5 -46v-49q0 -8 2 -12q44 -65 64 -68h243q7 0 13 2q16 9 35.5 29.5t29.5 38.5v57q-26 46 -65 70z" />
    <glyph glyph-name="yen" unicode="&#xa5;" horiz-adv-x="1005" 
d="M1022 1225l-303 -496h170v-192h-266v-60h266v-192h-266v-285h-215v285h-277v192h277v60h-277v192h174l-293 496h238l266 -455l268 455h238z" />
    <glyph glyph-name="brokenbar" unicode="&#xa6;" horiz-adv-x="395" 
d="M281 698h-201v668h201v-668zM281 -193h-201v674h201v-674z" />
    <glyph glyph-name="section" unicode="&#xa7;" horiz-adv-x="1044" 
d="M909 975l-190 -62q-17 35 -47.5 74t-55.5 39h-256q-18 0 -46 -26.5t-27 -43.5q0 -1 1 -9.5t1.5 -11t2.5 -9.5t4.5 -10t7.5 -6t11 -3l258 -14q108 -4 162 -39q19 -11 57 -47t56 -59q47 -62 47 -144v-14q0 -98 -72 -170q68 -65 68 -154v-26q0 -60 -37 -115q-12 -18 -40 -46
t-52 -46q-63 -47 -148 -47h-254q-77 0 -134 38t-109 107q-26 34 -56 96l195 66q59 -113 100 -113h258q17 0 39.5 18t32.5 35v37q0 6 -8 13.5t-19 7.5l-270 12q-75 3 -131 39q-20 13 -60.5 48t-56.5 56q-45 60 -45 144v14q0 92 66 164q-69 59 -80 184q-6 69 39 131
q98 138 237 138h256q85 0 146 -45q39 -29 81 -83.5t68 -117.5zM299 608v-20q0 -6 2 -10q0 -1 13 -18.5t30 -35.5t25 -20l239 -12l13 2q22 13 47.5 46t25.5 46v18l-2 10q-14 22 -37.5 45.5t-40.5 32.5q-4 2 -8 2l-237 11q-36 -20 -68 -82z" />
    <glyph glyph-name="dieresis" unicode="&#xa8;" horiz-adv-x="743" 
d="M682 1016h-199v211h199v-211zM352 1016h-198v211h198v-211z" />
    <glyph glyph-name="copyright" unicode="&#xa9;" horiz-adv-x="1462" 
d="M121 172q-35 52 -35 117v647q0 72 33 117q22 30 69.5 79t77.5 66q58 35 125 35h619q67 0 125 -35q30 -17 77.5 -66t69.5 -79q35 -52 35 -117v-647q0 -72 -33 -117q-22 -30 -69.5 -79t-77.5 -66q-58 -35 -125 -35h-619q-67 0 -125 35q-30 17 -77.5 66t-69.5 79zM1114 293
v639q0 11 -38 52t-62 52q-8 4 -15 4h-596q-10 0 -18 -4q-22 -11 -51 -37.5t-43 -54.5q-2 -4 -2 -12v-639q0 -11 38 -52.5t62 -52.5q8 -4 14 -4h596q11 0 19 4q22 10 51 37.5t43 55.5q2 4 2 12zM403 504q0 -66 33 -113q10 -17 40 -47t50 -43q53 -39 131 -39h97
q72 0 132.5 59.5t96.5 135.5l-164 43q-15 -42 -55 -66q-4 -2 -12 -2h-107q-13 1 -30.5 19.5t-24.5 33.5l-2 15v219q0 8 2 14q7 15 24.5 33.5t30.5 19.5h107q8 0 12 -2q41 -24 55 -65l164 43q-36 75 -96.5 134.5t-132.5 59.5h-97q-79 0 -131 -38q-20 -13 -49.5 -43.5
t-40.5 -47.5q-33 -47 -33 -112v-211z" />
    <glyph glyph-name="ordfeminine" unicode="&#xaa;" horiz-adv-x="788" 
d="M645 573h-170l-6 37q-73 -47 -100 -47h-90q-59 0 -113 35q-43 31 -78 76q-27 36 -27 98v262q0 63 27 99q11 15 35.5 38.5t42.5 36.5q54 35 113 35h110q20 0 70 -20v18h168v-526zM457 1018q0 8 -2 10q-27 33 -47 45q-2 2 -11 2h-106q-8 0 -10 -2q-29 -18 -48 -45l-2 -10
v-230q0 -6 2 -10q19 -27 48 -45q2 -2 10 -2h86q8 0 10 2q64 40 68 45q2 2 2 10v230z" />
    <glyph glyph-name="guillemotleft" unicode="&#xab;" horiz-adv-x="1226" 
d="M1090 225l-228 -59l-330 332l330 331l223 -65l-276 -266zM633 225l-227 -59l-330 332l330 331l223 -65l-277 -266z" />
    <glyph glyph-name="logicalnot" unicode="&#xac;" horiz-adv-x="1052" 
d="M940 594l2 -477h-199v284h-653v193h852h-2z" />
    <glyph glyph-name="registered" unicode="&#xae;" horiz-adv-x="1462" 
d="M946 580q-35 -47 -67 -74l127 -238h-191l-98 191h-99v-195h-182v688h303q70 0 127 -41q20 -13 44 -39t36 -45q28 -46 31 -104v-33q0 -63 -31 -110zM799 725q-20 33 -56 57h-125v-151h127q12 6 28.5 23t25.5 34v37zM121 172q-35 52 -35 117v647q0 72 33 117q22 30 69.5 79
t77.5 66q58 35 125 35h619q67 0 125 -35q30 -17 77.5 -66t69.5 -79q35 -52 35 -117v-647q0 -72 -33 -117q-22 -30 -69.5 -79t-77.5 -66q-58 -35 -125 -35h-619q-67 0 -125 35q-30 17 -77.5 66t-69.5 79zM1114 293v639q0 11 -38 52t-62 52q-8 4 -15 4h-596q-10 0 -18 -4
q-22 -11 -51 -37.5t-43 -54.5q-2 -4 -2 -12v-639q0 -11 38 -52.5t62 -52.5q8 -4 14 -4h596q11 0 19 4q22 10 51 37.5t43 55.5q2 4 2 12z" />
    <glyph glyph-name="macron" unicode="&#xaf;" horiz-adv-x="727" 
d="M549 1042h-465v183h465v-183z" />
    <glyph glyph-name="degree" unicode="&#xb0;" horiz-adv-x="722" 
d="M518 1200q0 -89 -62 -151t-149 -62t-151 62.5t-64 150.5q0 85 64.5 147t150.5 62t148.5 -62t62.5 -147zM399 1200q0 37 -26.5 64.5t-65.5 27.5t-67.5 -27.5t-28.5 -64.5q0 -40 28 -69t68 -29q39 0 65.5 29t26.5 69z" />
    <glyph glyph-name="plusminus" unicode="&#xb1;" horiz-adv-x="1052" 
d="M885 401h-291v-284h-199v284h-291v193h291v289h199v-289h291v-193zM885 -193h-785v193h785v-193z" />
    <glyph glyph-name="twosuperior" unicode="&#xb2;" horiz-adv-x="790" 
d="M475 1026q0 19 -18 37t-41 18h-101q-17 0 -53 -25t-59 -48l-131 94q42 50 108 96q27 20 69 32.5t77 12.5h92q105 0 192 -108q37 -45 37 -107v-18q0 -60 -58.5 -111.5t-125.5 -73.5l-172 -53q-8 -2 -12.5 -6t-5 -7t-1 -9.5t-0.5 -8.5h359v-166h-541v168q0 69 39 106.5
t115 61.5l176 66q55 24 55 49z" />
    <glyph glyph-name="threesuperior" unicode="&#xb3;" horiz-adv-x="802" 
d="M299 969h111q25 -1 38.5 0t26 11t12.5 30q0 32 -43 53q-4 2 -16 2h-137q-32 0 -76 -51l-143 82q34 47 86 88q61 45 137 45h135q115 0 191 -86q38 -56 38 -131q0 -86 -57 -119q28 -16 42.5 -41t14.5 -76q0 -75 -38 -131q-76 -86 -191 -86h-135q-76 0 -137 45
q-45 31 -86 88l143 82q46 -53 76 -53h137q13 0 21 4q38 21 38 53q0 20 -12.5 30t-26 11t-38.5 0h-111v150z" />
    <glyph glyph-name="acute" unicode="&#xb4;" horiz-adv-x="759" 
d="M461 999l-189 56l189 243h241z" />
    <glyph glyph-name="mu" unicode="&#xb5;" horiz-adv-x="999" 
d="M840 0h-203l-6 51q-81 -59 -129 -59h-154q-38 0 -80 10v-332h-205q-1 118 -0.5 579.5t0.5 635.5h205v-635q16 -30 68 -62q4 -2 12 -2h148q14 0 56 29.5t64 52.5v617h205v-703z" />
    <glyph glyph-name="paragraph" unicode="&#xb6;" horiz-adv-x="1079" 
d="M958 0h-206v500h-76v-500h-207v500h-98q-85 0 -146 43q-22 15 -59.5 51.5t-50.5 56.5q-37 55 -37 123v150q0 70 37 125q13 20 50.5 57.5t59.5 52.5q61 45 146 45h587v-1204zM752 702v297h-76v-297h76zM295 934q-2 -4 -2 -12v-144l2 -10q55 -66 78 -66h96v297h-96
q-9 0 -13 -2q-47 -29 -65 -63z" />
    <glyph glyph-name="periodcentered" unicode="&#xb7;" horiz-adv-x="585" 
d="M365 401h-250v205h250v-205z" />
    <glyph glyph-name="cedilla" unicode="&#xb8;" horiz-adv-x="831" 
d="M606 -150l-164 -256h-231l197 316z" />
    <glyph glyph-name="onesuperior" unicode="&#xb9;" horiz-adv-x="679" 
d="M537 561h-465v172h159v342h-139v170h314v-512h131v-172z" />
    <glyph glyph-name="ordmasculine" unicode="&#xba;" horiz-adv-x="770" 
d="M627 772q0 -62 -27 -98q-33 -42 -76 -76q-58 -35 -114 -35h-131q-59 0 -113 35q-43 31 -78 76q-27 36 -27 98v262q0 63 27 99q11 15 35.5 38.5t42.5 36.5q54 35 113 35h131q56 0 114 -35q45 -35 76 -75q27 -36 27 -99v-262zM457 1018q0 8 -2 10q-27 33 -47 45q-2 2 -11 2
h-106q-8 0 -10 -2q-29 -18 -48 -45l-2 -10v-230q0 -6 2 -10q19 -27 48 -45q2 -2 10 -2h106q9 0 11 2q20 12 47 45q2 2 2 10v230z" />
    <glyph glyph-name="guillemotright" unicode="&#xbb;" horiz-adv-x="1204" 
d="M303 166l-227 59l280 273l-276 266l223 65l330 -331zM760 166l-228 59l281 273l-276 266l223 65l330 -331z" />
    <glyph glyph-name="onequarter" unicode="&#xbc;" horiz-adv-x="1519" 
d="M1206 1225l-663 -1225h-230l664 1225h229zM1376 133h-96v-133h-174v133h-326v143l353 392h147v-369h96v-166zM1114 297l-2 141l-131 -141h133zM537 561h-465v172h159v342h-139v170h314v-512h131v-172z" />
    <glyph glyph-name="onehalf" unicode="&#xbd;" horiz-adv-x="1642" 
d="M1206 1225l-663 -1225h-230l664 1225h229zM1327 451q0 19 -18 37t-41 18h-101q-17 0 -53 -25.5t-59 -48.5l-131 94q44 53 108 97q27 20 69 32.5t77 12.5h92q104 0 192 -109q37 -45 37 -106v-19q0 -60 -58 -111t-126 -73l-172 -53q-8 -2 -12.5 -6t-5 -7t-1 -9.5t-0.5 -8.5
h359v-166h-541v168q0 69 39 106.5t115 61.5l176 65q55 24 55 50zM537 561h-465v172h159v342h-139v170h314v-512h131v-172z" />
    <glyph glyph-name="threequarters" unicode="&#xbe;" horiz-adv-x="1572" 
d="M1260 1225l-664 -1225h-229l663 1225h230zM1430 133h-97v-133h-174v133h-325v143l352 392h147v-369h97v-166zM1167 297l-2 141l-131 -141h133zM299 969h111q25 -1 38.5 0t26 11t12.5 30q0 32 -43 53q-4 2 -16 2h-137q-32 0 -76 -51l-143 82q34 47 86 88q61 45 137 45h135
q115 0 191 -86q38 -56 38 -131q0 -86 -57 -119q28 -16 42.5 -41t14.5 -76q0 -75 -38 -131q-76 -86 -191 -86h-135q-76 0 -137 45q-45 31 -86 88l143 82q46 -53 76 -53h137q13 0 21 4q38 21 38 53q0 20 -12.5 30t-26 11t-38.5 0h-111v150z" />
    <glyph glyph-name="questiondown" unicode="&#xbf;" horiz-adv-x="942" 
d="M78 422q0 72 42 129.5t105 89.5q5 2 29 12.5t43 20t41.5 22.5t35.5 26.5t13 25.5v149h215v-158q0 -31 -7.5 -58t-19 -48t-31.5 -41.5t-37.5 -33.5t-45.5 -29.5t-46 -25.5t-49.5 -23.5t-46.5 -22.5q-26 -13 -26 -41v-133l2 -11q14 -24 37.5 -45.5t38.5 -21.5h229q7 0 16 6
q21 14 47 39.5t39 48.5l9 14l202 -59q-23 -49 -47 -86q-47 -69 -114 -118.5t-146 -49.5h-244q-80 0 -143 47q-21 14 -55.5 50.5t-48.5 58.5q-37 55 -37 125v141zM371 1231h247v-240h-247v240z" />
    <glyph glyph-name="Agrave" unicode="&#xc0;" horiz-adv-x="1124" 
d="M1055 0h-230l-90 260h-465l-90 -260h-229l428 1225h250zM668 465l-164 483l-166 -483h330zM698 1331l-188 -55l-242 299h242z" />
    <glyph glyph-name="Aacute" unicode="&#xc1;" horiz-adv-x="1124" 
d="M1055 0h-230l-90 260h-465l-90 -260h-229l428 1225h250zM668 465l-164 483l-166 -483h330zM598 1294l-188 56l188 243h242z" />
    <glyph glyph-name="Acircumflex" unicode="&#xc2;" horiz-adv-x="1124" 
d="M1055 0h-230l-90 260h-465l-90 -260h-229l428 1225h250zM668 465l-164 483l-166 -483h330zM440 1305h-219l201 268h192l201 -268h-219l-78 106z" />
    <glyph glyph-name="Atilde" unicode="&#xc3;" horiz-adv-x="1124" 
d="M1055 0h-230l-90 260h-465l-90 -260h-229l428 1225h250zM668 465l-164 483l-166 -483h330zM836 1352l-164 -47q-12 30 -39.5 46t-44.5 11l-133 -43q-79 -26 -162.5 18.5t-124.5 147.5l174 43q13 -30 34 -43t38 -8l139 43q81 26 161.5 -18.5t121.5 -149.5z" />
    <glyph glyph-name="Adieresis" unicode="&#xc4;" horiz-adv-x="1124" 
d="M1055 0h-230l-90 260h-465l-90 -260h-229l428 1225h250zM668 465l-164 483l-166 -483h330zM768 1337h-199v211h199v-211zM438 1337h-198v211h198v-211z" />
    <glyph glyph-name="Aring" unicode="&#xc5;" horiz-adv-x="1124" 
d="M1055 0h-230l-90 260h-465l-90 -260h-229l428 1225h250zM668 465l-164 483l-166 -483h330zM715 1518q0 -89 -62 -151t-149 -62t-151 62.5t-64 150.5q0 84 64 146t151 62q86 0 148.5 -61.5t62.5 -146.5zM596 1518q0 37 -26.5 64.5t-65.5 27.5t-67.5 -27.5t-28.5 -64.5
q0 -40 28.5 -69.5t67.5 -29.5t65.5 29.5t26.5 69.5z" />
    <glyph glyph-name="AE" unicode="&#xc6;" horiz-adv-x="1472" 
d="M1276 0h-709v260h-297l-90 -260h-229l428 1225h897v-205h-494v-309h455v-205h-455v-301h494v-205zM528 1020l-190 -555h229v555h-39z" />
    <glyph glyph-name="Ccedilla" unicode="&#xc7;" horiz-adv-x="1118" 
d="M668 -150l-164 -256h-232l197 316zM958 238q-18 -43 -43 -78q-125 -170 -260 -170h-256q-66 0 -127 37q-31 18 -80 66.5t-69 78.5q-33 49 -33 117v645q0 66 33 115q22 30 70.5 80t78.5 67q68 37 127 37h256q131 0 260 -170q17 -25 43 -72l-208 -59q-62 76 -93 94
q-2 2 -8 2h-241l-9 -2q-21 -11 -49 -38.5t-43 -51.5q-2 -4 -2 -23v-622q0 -17 33.5 -48.5t60.5 -45.5q2 -2 15 -2h233q6 0 10 2q19 9 42.5 33t36.5 44l14 19z" />
    <glyph glyph-name="Egrave" unicode="&#xc8;" horiz-adv-x="1056" 
d="M860 0h-770v1225h770v-205h-555v-309h516v-205h-516v-301h555v-205zM674 1350l-189 -56l-241 299h241z" />
    <glyph glyph-name="Eacute" unicode="&#xc9;" horiz-adv-x="1056" 
d="M860 0h-770v1225h770v-205h-555v-309h516v-205h-516v-301h555v-205zM537 1294l-189 56l189 243h241z" />
    <glyph glyph-name="Ecircumflex" unicode="&#xca;" horiz-adv-x="1056" 
d="M860 0h-770v1225h770v-205h-555v-309h516v-205h-516v-301h555v-205zM408 1305h-220l201 268h193l200 -268h-219l-78 106z" />
    <glyph glyph-name="Edieresis" unicode="&#xcb;" horiz-adv-x="1056" 
d="M860 0h-770v1225h770v-205h-555v-309h516v-205h-516v-301h555v-205zM754 1335h-199v211h199v-211zM424 1335h-199v211h199v-211z" />
    <glyph glyph-name="Igrave" unicode="&#xcc;" horiz-adv-x="491" 
d="M305 0h-215v1225h215v-1225zM309 1350l-188 -56l-242 299h242z" />
    <glyph glyph-name="Iacute" unicode="&#xcd;" horiz-adv-x="491" 
d="M305 0h-215v1225h215v-1225zM279 1294l-189 56l189 243h241z" />
    <glyph glyph-name="Icircumflex" unicode="&#xce;" horiz-adv-x="491" 
d="M305 0h-215v1225h215v-1225zM119 1305h-219l200 268h193l201 -268h-220l-77 106z" />
    <glyph glyph-name="Idieresis" unicode="&#xcf;" horiz-adv-x="491" 
d="M305 0h-215v1225h215v-1225zM461 1337h-199v211h199v-211zM131 1337h-199v211h199v-211z" />
    <glyph glyph-name="Eth" unicode="&#xd0;" horiz-adv-x="1193" 
d="M997 297q0 -72 -28 -117q-22 -30 -71.5 -77.5t-80.5 -65.5q-72 -37 -123 -37h-563v516h-154v193h154v516h563q70 0 123 -35q30 -18 76.5 -66.5t73.5 -83.5q30 -44 30 -116v-627zM346 205h334q10 0 14 2q25 14 56.5 45.5t31.5 48.5v627q-18 30 -44.5 55.5t-47.5 34.5
q-2 2 -16 2h-328v-311h211v-193h-211v-311z" />
    <glyph glyph-name="Ntilde" unicode="&#xd1;" horiz-adv-x="1159" 
d="M956 0h-227l-424 813v-813h-215v1225h232l419 -824v824h215v-1225zM887 1356l-164 -47q-12 30 -39.5 46t-44.5 11l-133 -43q-79 -26 -162.5 18.5t-124.5 147.5l174 43q13 -30 34 -43t38 -8l139 43q81 26 161.5 -18.5t121.5 -149.5z" />
    <glyph glyph-name="Ograve" unicode="&#xd2;" horiz-adv-x="1202" 
d="M1022 291q0 -68 -33 -117q-26 -33 -73 -81.5t-76 -65.5q-61 -37 -127 -37h-312q-66 0 -127 37q-30 17 -78.5 67t-70.5 80q-33 49 -33 117v641q0 68 33 117q22 30 70.5 80t78.5 67q61 37 127 37h312q66 0 127 -37q29 -17 76 -65.5t73 -81.5q33 -49 33 -117v-641zM307 926
v-633q0 -6 2 -8q18 -27 45 -53t45 -35q4 -2 11 -2h295q6 0 10 2q18 9 45 35t45 53l2 8v633q0 8 -2 10q-18 27 -45 54t-45 36q-4 2 -10 2h-295q-9 0 -11 -2q-18 -9 -45 -36t-45 -54zM743 1350l-188 -56l-242 299h242z" />
    <glyph glyph-name="Oacute" unicode="&#xd3;" horiz-adv-x="1206" 
d="M1022 291q0 -68 -33 -117q-26 -33 -73 -81.5t-76 -65.5q-61 -37 -127 -37h-312q-66 0 -127 37q-30 17 -78.5 67t-70.5 80q-33 49 -33 117v641q0 68 33 117q22 30 70.5 80t78.5 67q61 37 127 37h312q66 0 127 -37q29 -17 76 -65.5t73 -81.5q33 -49 33 -117v-641zM307 926
v-633q0 -6 2 -8q18 -27 45 -53t45 -35q4 -2 11 -2h295q6 0 10 2q18 9 45 35t45 53l2 8v633q0 8 -2 10q-18 27 -45 54t-45 36q-4 2 -10 2h-295q-9 0 -11 -2q-18 -9 -45 -36t-45 -54zM543 1294l-189 56l189 243h241z" />
    <glyph glyph-name="Ocircumflex" unicode="&#xd4;" horiz-adv-x="1206" 
d="M1022 291q0 -68 -33 -117q-26 -33 -73 -81.5t-76 -65.5q-61 -37 -127 -37h-312q-66 0 -127 37q-30 17 -78.5 67t-70.5 80q-33 49 -33 117v641q0 68 33 117q22 30 70.5 80t78.5 67q61 37 127 37h312q66 0 127 -37q29 -17 76 -65.5t73 -81.5q33 -49 33 -117v-641zM307 926
v-633q0 -6 2 -8q18 -27 45 -53t45 -35q4 -2 11 -2h295q6 0 10 2q18 9 45 35t45 53l2 8v633q0 8 -2 10q-18 27 -45 54t-45 36q-4 2 -10 2h-295q-9 0 -11 -2q-18 -9 -45 -36t-45 -54zM494 1305h-220l201 268h193l200 -268h-219l-78 106z" />
    <glyph glyph-name="Otilde" unicode="&#xd5;" horiz-adv-x="1185" 
d="M1022 291q0 -68 -33 -117q-26 -33 -73 -81.5t-76 -65.5q-61 -37 -127 -37h-312q-66 0 -127 37q-30 17 -78.5 67t-70.5 80q-33 49 -33 117v641q0 68 33 117q22 30 70.5 80t78.5 67q61 37 127 37h312q66 0 127 -37q29 -17 76 -65.5t73 -81.5q33 -49 33 -117v-641zM307 926
v-633q0 -6 2 -8q18 -27 45 -53t45 -35q4 -2 11 -2h295q6 0 10 2q18 9 45 35t45 53l2 8v633q0 8 -2 10q-18 27 -45 54t-45 36q-4 2 -10 2h-295q-9 0 -11 -2q-18 -9 -45 -36t-45 -54zM897 1352l-164 -47q-12 30 -39.5 46t-44.5 11l-133 -43q-79 -26 -162.5 18.5t-124.5 147.5
l174 43q13 -30 34 -43t38 -8l139 43q81 26 161.5 -18.5t121.5 -149.5z" />
    <glyph glyph-name="Odieresis" unicode="&#xd6;" horiz-adv-x="1206" 
d="M1022 291q0 -68 -33 -117q-26 -33 -73 -81.5t-76 -65.5q-61 -37 -127 -37h-312q-66 0 -127 37q-30 17 -78.5 67t-70.5 80q-33 49 -33 117v641q0 68 33 117q22 30 70.5 80t78.5 67q61 37 127 37h312q66 0 127 -37q29 -17 76 -65.5t73 -81.5q33 -49 33 -117v-641zM307 926
v-633q0 -6 2 -8q18 -27 45 -53t45 -35q4 -2 11 -2h295q6 0 10 2q18 9 45 35t45 53l2 8v633q0 8 -2 10q-18 27 -45 54t-45 36q-4 2 -10 2h-295q-9 0 -11 -2q-18 -9 -45 -36t-45 -54zM823 1335h-198v211h198v-211zM494 1335h-199v211h199v-211z" />
    <glyph glyph-name="multiply" unicode="&#xd7;" horiz-adv-x="1052" 
d="M250 111l-139 141l247 250l-245 248l135 137l248 -250l249 250l140 -142l-248 -249l246 -248l-135 -137l-248 249z" />
    <glyph glyph-name="Oslash" unicode="&#xd8;" horiz-adv-x="1169" 
d="M987 1276l-78 -139q16 -16 80 -88q33 -49 33 -117v-641q0 -68 -33 -117q-26 -33 -73 -81.5t-76 -65.5q-61 -37 -127 -37h-312q-51 0 -104 24l-35 -65h-139l76 139q-57 61 -74 86q-33 49 -33 117v641q0 68 33 117q22 30 70.5 80t78.5 67q61 37 127 37h312q39 0 98 -23
l37 66h139zM805 936l-2 2l-406 -741h2q4 -2 11 -2h295q6 0 10 2q18 9 45 35t45 53l2 8v633q0 8 -2 10zM307 926v-633v-6l404 739l-6 2h-295q-9 0 -11 -2q-18 -9 -45 -36t-45 -54z" />
    <glyph glyph-name="Ugrave" unicode="&#xd9;" 
d="M733 1225v-932q0 -4 -2 -8q-18 -27 -44 -53t-44 -35q-4 -2 -10 -2h-244q-6 0 -10 2q-19 9 -45 34.5t-45 53.5l-2 10v930h-215v-934q0 -70 32 -117q21 -30 70.5 -80t79.5 -67q61 -37 127 -37h260q64 0 125 37q31 17 78.5 66t70.5 81q33 49 33 117v934h-215zM713 1350
l-189 -56l-241 299h241z" />
    <glyph glyph-name="Uacute" unicode="&#xda;" 
d="M733 1225v-932q0 -4 -2 -8q-18 -27 -44 -53t-44 -35q-4 -2 -10 -2h-244q-6 0 -10 2q-19 9 -45 34.5t-45 53.5l-2 10v930h-215v-934q0 -70 32 -117q21 -30 70.5 -80t79.5 -67q61 -37 127 -37h260q64 0 125 37q31 17 78.5 66t70.5 81q33 49 33 117v934h-215zM522 1294
l-188 56l188 243h242z" />
    <glyph glyph-name="Ucircumflex" unicode="&#xdb;" 
d="M733 1225v-932q0 -4 -2 -8q-18 -27 -44 -53t-44 -35q-4 -2 -10 -2h-244q-6 0 -10 2q-19 9 -45 34.5t-45 53.5l-2 10v930h-215v-934q0 -70 32 -117q21 -30 70.5 -80t79.5 -67q61 -37 127 -37h260q64 0 125 37q31 17 78.5 66t70.5 81q33 49 33 117v934h-215zM444 1305h-219
l201 268h192l201 -268h-219l-78 106z" />
    <glyph glyph-name="Udieresis" unicode="&#xdc;" 
d="M733 1225v-932q0 -4 -2 -8q-18 -27 -44 -53t-44 -35q-4 -2 -10 -2h-244q-6 0 -10 2q-19 9 -45 34.5t-45 53.5l-2 10v930h-215v-934q0 -70 32 -117q21 -30 70.5 -80t79.5 -67q61 -37 127 -37h260q64 0 125 37q31 17 78.5 66t70.5 81q33 49 33 117v934h-215zM776 1335h-198
v211h198v-211zM446 1335h-198v211h198v-211z" />
    <glyph glyph-name="Yacute" unicode="&#xdd;" horiz-adv-x="1064" 
d="M987 1225l-405 -690v-535h-215v535l-402 690h238l272 -465l273 465h239zM492 1294l-189 56l189 243h241z" />
    <glyph glyph-name="Thorn" unicode="&#xde;" horiz-adv-x="1099" 
d="M958 524q0 -72 -36 -125q-13 -20 -51 -56t-60 -52q-62 -45 -145 -45h-361v-248h-215v1227h215v-238h361q81 0 145 -45q21 -15 59 -53.5t52 -59.5q36 -53 36 -124v-181zM743 526v176q0 11 -2 15q-10 20 -30.5 42t-34.5 23h-371v-331h361q13 0 38 22.5t37 44.5q2 4 2 8z
" />
    <glyph glyph-name="germandbls" unicode="&#xdf;" horiz-adv-x="1112" 
d="M285 918v-771l-17 -147h-207l19 182v740q0 70 35 118q26 35 70.5 82.5t74.5 65.5q68 37 129 37h121q81 0 145 -45q23 -16 54.5 -48t44.5 -51q39 -56 39 -129v-94q0 -38 -20 -69.5t-62 -73.5l-10 -10l-8.5 -8.5l-7 -7t-6 -6.5t-4.5 -5t-4 -5l-2.5 -5t-2.5 -5.5l-2 -5
t-2 -6.5q-3 -9 -3 -26v-33q0 -6 10 -16t23 -11q17 -2 28.5 -3.5t15.5 -2.5t13.5 -2t26.5 -2q89 -8 146 -61.5t57 -149.5v-90q0 -72 -39 -125q-13 -20 -40.5 -48.5t-51.5 -45.5q-56 -39 -146 -43h-180q-30 0 -66.5 11t-60.5 26q0 -1 24.5 42t48.5 87l24 43q26 -13 34 -15h172
q20 0 48 25.5t28 46.5v82q0 26 -29 29q-29 2 -96 10q-88 11 -140 61.5t-52 143.5v51q0 45 12.5 77t46.5 66q1 1 14 13.5t20.5 20t18.5 21.5t17 25q2 3 2 21v71l-2 13q-12 20 -36.5 43.5t-41.5 23.5h-117q-20 0 -53 -34.5t-49 -63.5z" />
    <glyph glyph-name="agrave" unicode="&#xe0;" horiz-adv-x="987" 
d="M598 555v70q0 8 -2 10q-22 36 -66 61q-8 4 -12 4h-180q-16 0 -42.5 -22.5t-39.5 -40.5l-193 57q14 33 59 82t75 70q71 49 147 49h176q86 0 150 -45q25 -18 56 -48t42 -48q35 -47 35 -127v-447l20 -180h-202l-11 41q-70 -51 -127 -51h-168q-83 0 -147 45
q-23 17 -53.5 47.5t-42.5 48.5q-37 51 -37 125v37q0 74 37 125q12 17 42 45.5t54 46.5q64 45 147 45h283zM598 266v107h-281q-8 0 -14 -4q-36 -22 -61 -66q-2 -4 -2 -6v-39l2 -6q26 -46 63 -64q8 -4 12 -4h160q16 0 61 32.5t60 49.5zM618 1055l-188 -56l-242 299h242z" />
    <glyph glyph-name="aacute" unicode="&#xe1;" horiz-adv-x="987" 
d="M598 555v70q0 8 -2 10q-22 36 -66 61q-8 4 -12 4h-180q-16 0 -42.5 -22.5t-39.5 -40.5l-193 57q14 33 59 82t75 70q71 49 147 49h176q86 0 150 -45q25 -18 56 -48t42 -48q35 -47 35 -127v-447l20 -180h-202l-11 41q-70 -51 -127 -51h-168q-83 0 -147 45
q-23 17 -53.5 47.5t-42.5 48.5q-37 51 -37 125v37q0 74 37 125q12 17 42 45.5t54 46.5q64 45 147 45h283zM598 266v107h-281q-8 0 -14 -4q-36 -22 -61 -66q-2 -4 -2 -6v-39l2 -6q26 -46 63 -64q8 -4 12 -4h160q16 0 61 32.5t60 49.5zM461 999l-189 56l189 243h241z" />
    <glyph glyph-name="acircumflex" unicode="&#xe2;" horiz-adv-x="987" 
d="M598 555v70q0 8 -2 10q-22 36 -66 61q-8 4 -12 4h-180q-16 0 -42.5 -22.5t-39.5 -40.5l-193 57q14 33 59 82t75 70q71 49 147 49h176q86 0 150 -45q25 -18 56 -48t42 -48q35 -47 35 -127v-447l20 -180h-202l-11 41q-70 -51 -127 -51h-168q-83 0 -147 45
q-23 17 -53.5 47.5t-42.5 48.5q-37 51 -37 125v37q0 74 37 125q12 17 42 45.5t54 46.5q64 45 147 45h283zM598 266v107h-281q-8 0 -14 -4q-36 -22 -61 -66q-2 -4 -2 -6v-39l2 -6q26 -46 63 -64q8 -4 12 -4h160q16 0 61 32.5t60 49.5zM354 1010h-219l201 268h192l201 -268
h-219l-78 106z" />
    <glyph glyph-name="atilde" unicode="&#xe3;" horiz-adv-x="987" 
d="M598 555v70q0 8 -2 10q-22 36 -66 61q-8 4 -12 4h-180q-16 0 -42.5 -22.5t-39.5 -40.5l-193 57q14 33 59 82t75 70q71 49 147 49h176q86 0 150 -45q25 -18 56 -48t42 -48q35 -47 35 -127v-447l20 -180h-202l-11 41q-70 -51 -127 -51h-168q-83 0 -147 45
q-23 17 -53.5 47.5t-42.5 48.5q-37 51 -37 125v37q0 74 37 125q12 17 42 45.5t54 46.5q64 45 147 45h283zM598 266v107h-281q-8 0 -14 -4q-36 -22 -61 -66q-2 -4 -2 -6v-39l2 -6q26 -46 63 -64q8 -4 12 -4h160q16 0 61 32.5t60 49.5zM778 1065l-164 -47q-12 30 -39.5 46
t-44.5 11l-133 -43q-79 -26 -162 18.5t-124 147.5l174 43q13 -30 33.5 -43t37.5 -8l140 43q81 26 161 -18.5t121 -149.5z" />
    <glyph glyph-name="adieresis" unicode="&#xe4;" horiz-adv-x="980" 
d="M598 555v70q0 8 -2 10q-22 36 -66 61q-8 4 -12 4h-180q-16 0 -42.5 -22.5t-39.5 -40.5l-193 57q14 33 59 82t75 70q71 49 147 49h176q86 0 150 -45q25 -18 56 -48t42 -48q35 -47 35 -127v-447l20 -180h-202l-11 41q-70 -51 -127 -51h-168q-83 0 -147 45
q-23 17 -53.5 47.5t-42.5 48.5q-37 51 -37 125v37q0 74 37 125q12 17 42 45.5t54 46.5q64 45 147 45h283zM598 266v107h-281q-8 0 -14 -4q-36 -22 -61 -66q-2 -4 -2 -6v-39l2 -6q26 -46 63 -64q8 -4 12 -4h160q16 0 61 32.5t60 49.5zM682 1016h-199v211h199v-211zM352 1016
h-198v211h198v-211z" />
    <glyph glyph-name="aring" unicode="&#xe5;" horiz-adv-x="987" 
d="M598 555v70q0 8 -2 10q-22 36 -66 61q-8 4 -12 4h-180q-16 0 -42.5 -22.5t-39.5 -40.5l-193 57q14 33 59 82t75 70q71 49 147 49h176q86 0 150 -45q25 -18 56 -48t42 -48q35 -47 35 -127v-447l20 -180h-202l-11 41q-70 -51 -127 -51h-168q-83 0 -147 45
q-23 17 -53.5 47.5t-42.5 48.5q-37 51 -37 125v37q0 74 37 125q12 17 42 45.5t54 46.5q64 45 147 45h283zM598 266v107h-281q-8 0 -14 -4q-36 -22 -61 -66q-2 -4 -2 -6v-39l2 -6q26 -46 63 -64q8 -4 12 -4h160q16 0 61 32.5t60 49.5zM651 1221q0 -89 -62 -151t-149 -62
t-151 62.5t-64 150.5q0 85 64.5 147t150.5 62t148.5 -62t62.5 -147zM532 1221q0 37 -26.5 64.5t-65.5 27.5t-67.5 -27.5t-28.5 -64.5q0 -40 28.5 -69.5t67.5 -29.5t65.5 29.5t26.5 69.5z" />
    <glyph glyph-name="ae" unicode="&#xe6;" horiz-adv-x="1515" 
d="M1358 338h-555v-78l2 -10q14 -24 39.5 -46t40.5 -22h198q13 0 38 20t38 36q6 6 6 8l191 -58q-14 -34 -58 -82.5t-73 -68.5q-68 -47 -148 -47h-192q-89 0 -150 43q-24 16 -61 53l-62 -45q-70 -51 -129 -51h-168q-83 0 -147 45q-23 17 -53.5 47.5t-42.5 48.5
q-37 51 -37 125v37q0 74 37 125q12 18 42.5 48.5t53.5 47.5q64 45 147 45h283v68v8q-21 35 -68 61q-8 4 -12 4h-180q-16 0 -42.5 -22.5t-39.5 -40.5l-193 57q14 33 59 82t75 70q71 49 147 49h176q86 0 150 -45q2 -2 32 -27q18 15 33 27q64 45 150 45h188q86 0 150 -45
q24 -18 55 -49t43 -49q37 -50 37 -125v-289zM477 182q14 0 57.5 30t63.5 50v105h-281q-9 0 -14 -5q-40 -25 -63 -65q-2 -4 -2 -6v-33l2 -6q22 -40 65 -66q8 -4 12 -4h160zM1153 530v93q0 10 -2 12q-9 15 -29 34t-39 29q-4 2 -12 2h-186q-15 0 -41 -21t-39 -44l-2 -12v-93
h350zM1163 246q2 2 2 0h-2z" />
    <glyph glyph-name="ccedilla" unicode="&#xe7;" horiz-adv-x="976" 
d="M606 -150l-164 -256h-231l197 316zM276 260q1 -6 5 -12q19 -34 65 -60q8 -4 12 -4h201q13 0 38 19.5t38 34.5q2 2 6 8l190 -58q-14 -34 -58 -82.5t-73 -68.5q-68 -47 -147 -47h-197q-88 0 -149 43q-23 17 -54.5 49t-43.5 51q-37 50 -37 125v369q0 75 37 125
q12 19 43.5 51t54.5 49q61 43 149 43h195q79 0 147 -47q35 -25 75 -69.5t56 -82.5l-190 -57l-6 8q-12 14 -37.5 33.5t-38.5 19.5h-199l-12 -4q-47 -26 -65 -59l-5 -12v-365z" />
    <glyph glyph-name="egrave" unicode="&#xe8;" horiz-adv-x="989" 
d="M831 344h-555v-84l3 -10q14 -23 39 -44.5t40 -21.5h199q13 0 38 19.5t38 34.5l6 8l190 -58q-14 -34 -58 -82.5t-73 -68.5q-68 -47 -147 -47h-193q-88 0 -149 43q-23 17 -54.5 48.5t-43.5 49.5q-39 53 -39 127v369q0 72 39 125q12 18 43.5 49.5t54.5 48.5q64 45 149 45
h189q85 0 149 -45q24 -18 55.5 -49t43.5 -49q36 -48 36 -125v-283zM627 526v97q0 10 -2 12q-9 15 -29 34t-39 29q-4 2 -12 2h-187q-15 0 -40 -21t-39 -44l-3 -12v-97h351zM618 1055l-188 -56l-242 299h242z" />
    <glyph glyph-name="eacute" unicode="&#xe9;" horiz-adv-x="989" 
d="M831 344h-555v-84l3 -10q14 -23 39 -44.5t40 -21.5h199q13 0 38 19.5t38 34.5l6 8l190 -58q-14 -34 -58 -82.5t-73 -68.5q-68 -47 -147 -47h-193q-88 0 -149 43q-23 17 -54.5 48.5t-43.5 49.5q-39 53 -39 127v369q0 72 39 125q12 18 43.5 49.5t54.5 48.5q64 45 149 45
h189q85 0 149 -45q24 -18 55.5 -49t43.5 -49q36 -48 36 -125v-283zM627 526v97q0 10 -2 12q-9 15 -29 34t-39 29q-4 2 -12 2h-187q-15 0 -40 -21t-39 -44l-3 -12v-97h351zM467 999l-188 56l188 243h242z" />
    <glyph glyph-name="ecircumflex" unicode="&#xea;" horiz-adv-x="999" 
d="M831 344h-555v-84l3 -10q14 -23 39 -44.5t40 -21.5h199q13 0 38 19.5t38 34.5l6 8l190 -58q-14 -34 -58 -82.5t-73 -68.5q-68 -47 -147 -47h-193q-88 0 -149 43q-23 17 -54.5 48.5t-43.5 49.5q-39 53 -39 127v369q0 72 39 125q12 18 43.5 49.5t54.5 48.5q64 45 149 45
h189q85 0 149 -45q24 -18 55.5 -49t43.5 -49q36 -48 36 -125v-283zM627 526v97q0 10 -2 12q-9 15 -29 34t-39 29q-4 2 -12 2h-187q-15 0 -40 -21t-39 -44l-3 -12v-97h351zM397 1010h-219l201 268h192l201 -268h-219l-78 106z" />
    <glyph glyph-name="edieresis" unicode="&#xeb;" horiz-adv-x="985" 
d="M827 344h-555v-84l2 -10q14 -23 39.5 -44.5t40.5 -21.5h199q13 0 38 19.5t38 34.5l6 8l190 -58q-14 -34 -58 -82.5t-73 -68.5q-68 -47 -147 -47h-193q-88 0 -149 43q-23 17 -55 48.5t-44 49.5q-38 52 -38 127v369q0 73 38 125q12 18 44 49.5t55 48.5q64 45 149 45h189
q85 0 149 -45q24 -18 55.5 -49t43.5 -49q36 -48 36 -125v-283zM623 526v97q0 10 -2 12q-9 15 -29 34t-39 29q-4 2 -12 2h-187q-15 0 -41 -21t-39 -44l-2 -12v-97h351zM713 1016h-199v211h199v-211zM383 1016h-199v211h199v-211z" />
    <glyph glyph-name="igrave" unicode="&#xec;" horiz-adv-x="452" 
d="M295 -2h-205v883h205v-883zM283 1055l-189 -56l-241 299h241z" />
    <glyph glyph-name="iacute" unicode="&#xed;" horiz-adv-x="452" 
d="M295 -2h-205v883h205v-883zM289 999l-189 56l189 243h241z" />
    <glyph glyph-name="icircumflex" unicode="&#xee;" horiz-adv-x="452" 
d="M295 -2h-205v883h205v-883zM111 1010h-220l201 268h193l200 -268h-219l-78 106z" />
    <glyph glyph-name="idieresis" unicode="&#xef;" horiz-adv-x="452" 
d="M457 1016h-199v211h199v-211zM127 1016h-199v211h199v-211zM295 -2h-205v883h205v-883z" />
    <glyph glyph-name="eth" unicode="&#xf0;" horiz-adv-x="985" 
d="M750 1122l-72 -37q83 -47 116 -91.5t33 -123.5v-608q0 -70 -36 -123q-13 -19 -50 -53.5t-61 -50.5q-61 -45 -141 -45h-177q-88 0 -143 41q-22 15 -59.5 51.5t-50.5 56.5q-37 55 -37 125v350q0 72 37 127q14 20 51 58t59 53q61 43 143 43h136q40 0 125 -68v33q0 14 -10 34
t-33 32l-121 65l-94 -39l-70 125l-119 58l90 165l211 -106l191 88zM279 631q-3 -7 -3 -13v-339q0 -21 3 -27q14 -24 39 -46t38 -22h187q15 0 40.5 23t39.5 47q2 2 2 29v323q-8 16 -31.5 38t-42.5 36l-19 14q-8 6 -32 6h-146q-13 0 -37 -22t-38 -47z" />
    <glyph glyph-name="ntilde" unicode="&#xf1;" horiz-adv-x="1013" 
d="M844 0h-205v623q0 8 -2 12q-18 35 -64 63q-2 2 -16 2h-143q-43 0 -121 -84v-616h-205v702l-20 183h200l11 -47q78 57 129 57h151q86 0 150 -45q24 -18 55 -49t43 -49q37 -50 37 -125v-627zM778 1065l-164 -47q-12 30 -39.5 46t-44.5 11l-133 -43q-79 -26 -162 18.5
t-124 147.5l174 43q13 -30 33.5 -43t37.5 -8l140 43q81 26 161 -18.5t121 -149.5z" />
    <glyph glyph-name="ograve" unicode="&#xf2;" horiz-adv-x="991" 
d="M829 258q0 -79 -34 -125q-12 -19 -43.5 -51t-55.5 -49q-61 -43 -149 -43h-193q-86 0 -147 43q-24 18 -56.5 50t-44.5 50q-34 46 -34 125v369q0 79 34 125q11 18 43.5 48.5t57.5 49.5q64 45 147 45h193q85 0 149 -45q24 -18 55.5 -49t43.5 -49q34 -46 34 -125v-369z
M276 621v-373q0 -11 22.5 -30t45.5 -32q4 -2 12 -2h189q4 0 12 4q18 10 42.5 29.5t25.5 30.5v373q0 6 -2 12q-9 16 -29.5 35.5t-38.5 29.5q-4 2 -10 2h-189q-6 0 -10 -2q-45 -25 -67 -65zM618 1055l-188 -56l-242 299h242z" />
    <glyph glyph-name="oacute" unicode="&#xf3;" horiz-adv-x="991" 
d="M829 258q0 -79 -34 -125q-12 -19 -43.5 -51t-55.5 -49q-61 -43 -149 -43h-193q-86 0 -147 43q-24 18 -56.5 50t-44.5 50q-34 46 -34 125v369q0 79 34 125q11 18 43.5 48.5t57.5 49.5q64 45 147 45h193q85 0 149 -45q24 -18 55.5 -49t43.5 -49q34 -46 34 -125v-369z
M276 621v-373q0 -11 22.5 -30t45.5 -32q4 -2 12 -2h189q4 0 12 4q18 10 42.5 29.5t25.5 30.5v373q0 6 -2 12q-9 16 -29.5 35.5t-38.5 29.5q-4 2 -10 2h-189q-6 0 -10 -2q-45 -25 -67 -65zM461 999l-189 56l189 243h241z" />
    <glyph glyph-name="ocircumflex" unicode="&#xf4;" horiz-adv-x="991" 
d="M829 258q0 -79 -34 -125q-12 -19 -43.5 -51t-55.5 -49q-61 -43 -149 -43h-193q-86 0 -147 43q-24 18 -56.5 50t-44.5 50q-34 46 -34 125v369q0 79 34 125q11 18 43.5 48.5t57.5 49.5q64 45 147 45h193q85 0 149 -45q24 -18 55.5 -49t43.5 -49q34 -46 34 -125v-369z
M276 621v-373q0 -11 22.5 -30t45.5 -32q4 -2 12 -2h189q4 0 12 4q18 10 42.5 29.5t25.5 30.5v373q0 6 -2 12q-9 16 -29.5 35.5t-38.5 29.5q-4 2 -10 2h-189q-6 0 -10 -2q-45 -25 -67 -65zM377 1010h-219l200 268h193l201 -268h-220l-77 106z" />
    <glyph glyph-name="otilde" unicode="&#xf5;" horiz-adv-x="991" 
d="M829 258q0 -79 -34 -125q-12 -19 -43.5 -51t-55.5 -49q-61 -43 -149 -43h-193q-86 0 -147 43q-24 18 -56.5 50t-44.5 50q-34 46 -34 125v369q0 79 34 125q11 18 43.5 48.5t57.5 49.5q64 45 147 45h193q85 0 149 -45q24 -18 55.5 -49t43.5 -49q34 -46 34 -125v-369z
M276 621v-373q0 -11 22.5 -30t45.5 -32q4 -2 12 -2h189q4 0 12 4q18 10 42.5 29.5t25.5 30.5v373q0 6 -2 12q-9 16 -29.5 35.5t-38.5 29.5q-4 2 -10 2h-189q-6 0 -10 -2q-45 -25 -67 -65zM780 1065l-164 -47q-12 30 -39.5 46t-44.5 11l-133 -43q-79 -26 -162 18.5
t-124 147.5l174 43q13 -30 33.5 -43t37.5 -8l140 43q81 26 161 -18.5t121 -149.5z" />
    <glyph glyph-name="odieresis" unicode="&#xf6;" horiz-adv-x="991" 
d="M829 258q0 -79 -34 -125q-12 -19 -43.5 -51t-55.5 -49q-61 -43 -149 -43h-193q-86 0 -147 43q-24 18 -56.5 50t-44.5 50q-34 46 -34 125v369q0 79 34 125q11 18 43.5 48.5t57.5 49.5q64 45 147 45h193q85 0 149 -45q24 -18 55.5 -49t43.5 -49q34 -46 34 -125v-369z
M276 621v-373q0 -11 22.5 -30t45.5 -32q4 -2 12 -2h189q4 0 12 4q18 10 42.5 29.5t25.5 30.5v373q0 6 -2 12q-9 16 -29.5 35.5t-38.5 29.5q-4 2 -10 2h-189q-6 0 -10 -2q-45 -25 -67 -65zM713 1016h-199v211h199v-211zM383 1016h-199v211h199v-211z" />
    <glyph glyph-name="divide" unicode="&#xf7;" horiz-adv-x="962" 
d="M799 401h-727v195h727v-195zM559 748h-252v258h252v-258zM559 0h-252v258h252v-258z" />
    <glyph glyph-name="oslash" unicode="&#xf8;" horiz-adv-x="1001" 
d="M813 946l-65 -119q55 -51 71 -75q35 -47 35 -125v-369q0 -78 -35 -125q-12 -19 -43.5 -51t-54.5 -49q-61 -43 -150 -43h-217q-31 0 -73 10l-39 -72h-133l69 127q-47 41 -72 78q-34 46 -34 125v369q0 79 34 125q11 18 43.5 48.5t57.5 49.5q64 45 147 45h217q28 0 70 -10
l33 61h139zM647 633l-6 8l-256 -457h184q5 0 13 4q18 10 42 29.5t25 30.5v373zM276 621v-373q0 -5 5 -10l256 462h-181q-6 0 -10 -2q-45 -25 -67 -65z" />
    <glyph glyph-name="ugrave" unicode="&#xf9;" horiz-adv-x="999" 
d="M840 0h-201l-8 51q-81 -59 -129 -59h-154q-88 0 -149 43q-24 17 -55.5 49t-43.5 51q-37 50 -37 125v625h205v-621q0 -10 2 -14q16 -30 68 -62q4 -2 12 -2h146q14 0 56 29.5t64 52.5v617h205v-703zM633 1055l-189 -56l-241 299h241z" />
    <glyph glyph-name="uacute" unicode="&#xfa;" horiz-adv-x="999" 
d="M840 0h-201l-8 51q-81 -59 -129 -59h-154q-88 0 -149 43q-24 17 -55.5 49t-43.5 51q-37 50 -37 125v625h205v-621q0 -10 2 -14q16 -30 68 -62q4 -2 12 -2h146q14 0 56 29.5t64 52.5v617h205v-703zM451 999l-189 56l189 243h241z" />
    <glyph glyph-name="ucircumflex" unicode="&#xfb;" horiz-adv-x="999" 
d="M840 0h-201l-8 51q-81 -59 -129 -59h-154q-88 0 -149 43q-24 17 -55.5 49t-43.5 51q-37 50 -37 125v625h205v-621q0 -10 2 -14q16 -30 68 -62q4 -2 12 -2h146q14 0 56 29.5t64 52.5v617h205v-703zM362 1010h-219l201 268h193l200 -268h-219l-78 106z" />
    <glyph glyph-name="udieresis" unicode="&#xfc;" horiz-adv-x="999" 
d="M840 0h-201l-8 51q-81 -59 -129 -59h-154q-88 0 -149 43q-24 17 -55.5 49t-43.5 51q-37 50 -37 125v625h205v-621q0 -10 2 -14q16 -30 68 -62q4 -2 12 -2h146q14 0 56 29.5t64 52.5v617h205v-703zM713 1016h-199v211h199v-211zM383 1016h-199v211h199v-211z" />
    <glyph glyph-name="yacute" unicode="&#xfd;" horiz-adv-x="880" 
d="M829 885l-434 -1217h-207l123 332h-18l-326 885h230l206 -600l209 600h217zM420 999l-189 56l189 243h242z" />
    <glyph glyph-name="thorn" unicode="&#xfe;" horiz-adv-x="1005" 
d="M844 260q0 -76 -37 -127q-14 -20 -44.5 -52t-53.5 -48q-61 -43 -148 -43h-149q-55 0 -121 47v-371h-205v1563h205v-385q66 51 121 51h149q87 0 148 -45q23 -17 54.5 -49t43.5 -51q37 -53 37 -127v-363zM639 264v354l-2 13q-21 38 -66 65q-8 4 -12 4h-141q-16 0 -60.5 -33
t-66.5 -59v-334q22 -26 65.5 -58t61.5 -32h141q8 0 12 2q42 26 66 68q2 4 2 10z" />
    <glyph glyph-name="ydieresis" unicode="&#xff;" horiz-adv-x="874" 
d="M870 885l-434 -1217h-207l123 332h-18l-326 885h230l206 -600l209 600h217zM700 1016h-198v211h198v-211zM371 1016h-199v211h199v-211z" />
    <glyph glyph-name="Amacron" unicode="&#x100;" horiz-adv-x="1124" 
d="M735 1364h-465v182h465v-182zM1055 0h-230l-90 260h-465l-90 -260h-229l428 1225h250zM668 465l-164 483l-166 -483h330z" />
    <glyph glyph-name="amacron" unicode="&#x101;" horiz-adv-x="987" 
d="M598 555v70q0 8 -2 10q-22 36 -66 61q-8 4 -12 4h-180q-16 0 -42.5 -22.5t-39.5 -40.5l-193 57q14 33 59 82t75 70q71 49 147 49h176q86 0 150 -45q25 -18 56 -48t42 -48q35 -47 35 -127v-447l20 -180h-202l-11 41q-70 -51 -127 -51h-168q-83 0 -147 45
q-23 17 -53.5 47.5t-42.5 48.5q-37 51 -37 125v37q0 74 37 125q12 17 42 45.5t54 46.5q64 45 147 45h283zM598 266v107h-281q-8 0 -14 -4q-36 -22 -61 -66q-2 -4 -2 -6v-39l2 -6q26 -46 63 -64q8 -4 12 -4h160q16 0 61 32.5t60 49.5zM682 1042h-465v183h465v-183z" />
    <glyph glyph-name="Abreve" unicode="&#x102;" horiz-adv-x="1124" 
d="M1055 0h-230l-90 260h-465l-90 -260h-229l428 1225h250zM668 465l-164 483l-166 -483h330zM600 1538h119q0 -89 -62 -151t-149 -62t-151 62.5t-64 150.5h119q0 -40 28 -69t68 -29q39 0 65.5 29t26.5 69z" />
    <glyph glyph-name="abreve" unicode="&#x103;" horiz-adv-x="987" 
d="M598 555v70q0 8 -2 10q-22 36 -66 61q-8 4 -12 4h-180q-16 0 -42.5 -22.5t-39.5 -40.5l-193 57q14 33 59 82t75 70q71 49 147 49h176q86 0 150 -45q25 -18 56 -48t42 -48q35 -47 35 -127v-447l20 -180h-202l-11 41q-70 -51 -127 -51h-168q-83 0 -147 45
q-23 17 -53.5 47.5t-42.5 48.5q-37 51 -37 125v37q0 74 37 125q12 17 42 45.5t54 46.5q64 45 147 45h283zM598 266v107h-281q-8 0 -14 -4q-36 -22 -61 -66q-2 -4 -2 -6v-39l2 -6q26 -46 63 -64q8 -4 12 -4h160q16 0 61 32.5t60 49.5zM530 1221h119q0 -89 -62 -151t-149 -62
t-151 62.5t-64 150.5h119q0 -40 28.5 -69.5t67.5 -29.5t65.5 29.5t26.5 69.5z" />
    <glyph glyph-name="Aogonek" unicode="&#x104;" horiz-adv-x="1124" 
d="M965 -406l-164 256l198 60l197 -316h-231zM1055 0h-230l-90 260h-465l-90 -260h-229l428 1225h250zM668 465l-164 483l-166 -483h330z" />
    <glyph glyph-name="aogonek" unicode="&#x105;" horiz-adv-x="987" 
d="M711 -406l-164 256l198 60l197 -316h-231zM598 555v70q0 8 -2 10q-22 36 -66 61q-8 4 -12 4h-180q-16 0 -42.5 -22.5t-39.5 -40.5l-193 57q14 33 59 82t75 70q71 49 147 49h176q86 0 150 -45q25 -18 56 -48t42 -48q35 -47 35 -127v-447l20 -180h-202l-11 41
q-70 -51 -127 -51h-168q-83 0 -147 45q-23 17 -53.5 47.5t-42.5 48.5q-37 51 -37 125v37q0 74 37 125q12 17 42 45.5t54 46.5q64 45 147 45h283zM598 266v107h-281q-8 0 -14 -4q-36 -22 -61 -66q-2 -4 -2 -6v-39l2 -6q26 -46 63 -64q8 -4 12 -4h160q16 0 61 32.5t60 49.5z
" />
    <glyph glyph-name="Cacute" unicode="&#x106;" horiz-adv-x="1132" 
d="M958 238q-18 -43 -43 -78q-125 -170 -260 -170h-256q-66 0 -127 37q-31 18 -80 66.5t-69 78.5q-33 49 -33 117v645q0 66 33 115q22 30 70.5 80t78.5 67q68 37 127 37h256q131 0 260 -170q17 -25 43 -72l-208 -59q-62 76 -93 94q-2 2 -8 2h-241l-9 -2q-21 -11 -49 -38.5
t-43 -51.5q-2 -4 -2 -23v-622q0 -17 33.5 -48.5t60.5 -45.5q2 -2 15 -2h233q6 0 10 2q19 9 42.5 33t36.5 44l14 19zM549 1294l-189 56l189 243h242z" />
    <glyph glyph-name="cacute" unicode="&#x107;" horiz-adv-x="976" 
d="M276 260q1 -6 5 -12q19 -34 65 -60q8 -4 12 -4h201q13 0 38 19.5t38 34.5q2 2 6 8l190 -58q-14 -34 -58 -82.5t-73 -68.5q-68 -47 -147 -47h-197q-88 0 -149 43q-23 17 -54.5 49t-43.5 51q-37 50 -37 125v369q0 75 37 125q12 19 43.5 51t54.5 49q61 43 149 43h195
q79 0 147 -47q35 -25 75 -69.5t56 -82.5l-190 -57l-6 8q-12 14 -37.5 33.5t-38.5 19.5h-199l-12 -4q-47 -26 -65 -59l-5 -12v-365zM461 999l-189 56l189 243h241z" />
    <glyph glyph-name="Ccircumflex" unicode="&#x108;" horiz-adv-x="1132" 
d="M958 238q-18 -43 -43 -78q-125 -170 -260 -170h-256q-66 0 -127 37q-31 18 -80 66.5t-69 78.5q-33 49 -33 117v645q0 66 33 115q22 30 70.5 80t78.5 67q68 37 127 37h256q131 0 260 -170q17 -25 43 -72l-208 -59q-62 76 -93 94q-2 2 -8 2h-241l-9 -2q-21 -11 -49 -38.5
t-43 -51.5q-2 -4 -2 -23v-622q0 -17 33.5 -48.5t60.5 -45.5q2 -2 15 -2h233q6 0 10 2q19 9 42.5 33t36.5 44l14 19zM465 1305h-219l200 268h193l201 -268h-219l-78 106z" />
    <glyph glyph-name="ccircumflex" unicode="&#x109;" horiz-adv-x="976" 
d="M276 260q1 -6 5 -12q19 -34 65 -60q8 -4 12 -4h201q13 0 38 19.5t38 34.5q2 2 6 8l190 -58q-14 -34 -58 -82.5t-73 -68.5q-68 -47 -147 -47h-197q-88 0 -149 43q-23 17 -54.5 49t-43.5 51q-37 50 -37 125v369q0 75 37 125q12 19 43.5 51t54.5 49q61 43 149 43h195
q79 0 147 -47q35 -25 75 -69.5t56 -82.5l-190 -57l-6 8q-12 14 -37.5 33.5t-38.5 19.5h-199l-12 -4q-47 -26 -65 -59l-5 -12v-365zM395 1010h-219l201 268h192l201 -268h-219l-78 106z" />
    <glyph glyph-name="Cdotaccent" unicode="&#x10a;" horiz-adv-x="1132" 
d="M958 238q-18 -43 -43 -78q-125 -170 -260 -170h-256q-66 0 -127 37q-31 18 -80 66.5t-69 78.5q-33 49 -33 117v645q0 66 33 115q22 30 70.5 80t78.5 67q68 37 127 37h256q131 0 260 -170q17 -25 43 -72l-208 -59q-62 76 -93 94q-2 2 -8 2h-241l-9 -2q-21 -11 -49 -38.5
t-43 -51.5q-2 -4 -2 -23v-622q0 -17 33.5 -48.5t60.5 -45.5q2 -2 15 -2h233q6 0 10 2q19 9 42.5 33t36.5 44l14 19zM639 1319h-219v219h219v-219z" />
    <glyph glyph-name="cdotaccent" unicode="&#x10b;" horiz-adv-x="976" 
d="M276 260q1 -6 5 -12q19 -34 65 -60q8 -4 12 -4h201q13 0 38 19.5t38 34.5q2 2 6 8l190 -58q-14 -34 -58 -82.5t-73 -68.5q-68 -47 -147 -47h-197q-88 0 -149 43q-23 17 -54.5 49t-43.5 51q-37 50 -37 125v369q0 75 37 125q12 19 43.5 51t54.5 49q61 43 149 43h195
q79 0 147 -47q35 -25 75 -69.5t56 -82.5l-190 -57l-6 8q-12 14 -37.5 33.5t-38.5 19.5h-199l-12 -4q-47 -26 -65 -59l-5 -12v-365zM567 1012h-219v219h219v-219z" />
    <glyph glyph-name="Ccaron" unicode="&#x10c;" horiz-adv-x="1132" 
d="M958 238q-18 -43 -43 -78q-125 -170 -260 -170h-256q-66 0 -127 37q-31 18 -80 66.5t-69 78.5q-33 49 -33 117v645q0 66 33 115q22 30 70.5 80t78.5 67q68 37 127 37h256q131 0 260 -170q17 -25 43 -72l-208 -59q-62 76 -93 94q-2 2 -8 2h-241l-9 -2q-21 -11 -49 -38.5
t-43 -51.5q-2 -4 -2 -23v-622q0 -17 33.5 -48.5t60.5 -45.5q2 -2 15 -2h233q6 0 10 2q19 9 42.5 33t36.5 44l14 19zM602 1573h219l-200 -268h-193l-201 268h219l78 -117z" />
    <glyph glyph-name="ccaron" unicode="&#x10d;" horiz-adv-x="976" 
d="M276 260q1 -6 5 -12q19 -34 65 -60q8 -4 12 -4h201q13 0 38 19.5t38 34.5q2 2 6 8l190 -58q-14 -34 -58 -82.5t-73 -68.5q-68 -47 -147 -47h-197q-88 0 -149 43q-23 17 -54.5 49t-43.5 51q-37 50 -37 125v369q0 75 37 125q12 19 43.5 51t54.5 49q61 43 149 43h195
q79 0 147 -47q35 -25 75 -69.5t56 -82.5l-190 -57l-6 8q-12 14 -37.5 33.5t-38.5 19.5h-199l-12 -4q-47 -26 -65 -59l-5 -12v-365zM522 1278h219l-200 -268h-193l-201 268h220l77 -117z" />
    <glyph glyph-name="Dcaron" unicode="&#x10e;" horiz-adv-x="1153" 
d="M956 297q0 -73 -30 -117q-20 -30 -70 -77.5t-82 -65.5q-68 -37 -123 -37h-561v1225h561q72 0 125 -35q31 -18 78 -68t70 -82q32 -44 32 -116v-627zM305 205h332q12 0 14 2q26 14 58 45.5t32 48.5v617q0 6 -2 10q-18 29 -44 54.5t-46 35.5q-2 2 -18 2h-326v-815zM561 1573
h219l-200 -268h-193l-201 268h220l77 -117z" />
    <glyph glyph-name="dcaron" unicode="&#x10f;" horiz-adv-x="1191" 
d="M1178 1024l-17 -139h-203l19 166v260h201v-287zM844 0h-201l-8 45q-70 -55 -133 -55h-148q-86 0 -147 45q-23 17 -54.5 49t-43.5 51q-37 53 -37 127v363q0 76 37 127q14 20 44.5 52t53.5 48q61 43 147 43h148q55 0 121 -47v377h204v-1043zM623 276v334q-22 26 -65.5 58
t-61.5 32h-140q-10 0 -12 -2q-18 -11 -36.5 -30t-28.5 -37q-3 -4 -3 -10v-355l3 -12q22 -40 65 -66q8 -4 12 -4h140q16 0 60.5 33t66.5 59z" />
    <glyph glyph-name="Dcroat" unicode="&#x110;" horiz-adv-x="1193" 
d="M997 297q0 -72 -28 -117q-22 -30 -71.5 -77.5t-80.5 -65.5q-72 -37 -123 -37h-563v516h-154v193h154v516h563q70 0 123 -35q30 -18 76.5 -66.5t73.5 -83.5q30 -44 30 -116v-627zM346 205h334q10 0 14 2q25 14 56.5 45.5t31.5 48.5v627q-18 30 -44.5 55.5t-47.5 34.5
q-2 2 -16 2h-328v-311h211v-193h-211v-311z" />
    <glyph glyph-name="dcroat" unicode="&#x111;" horiz-adv-x="1013" 
d="M891 956h-64v-782l17 -182h-205l-4 45q-70 -55 -133 -55h-148q-86 0 -147 45q-23 17 -54.5 49t-43.5 51q-37 53 -37 127v362q0 76 37 127q14 20 44.5 52.5t53.5 48.5q61 43 147 43h148q55 0 121 -47v116h-269v193h269v68h204v-68h64v-193zM623 268v334q-22 26 -65.5 58
t-61.5 32h-140q-10 0 -12 -2q-18 -11 -36.5 -30t-28.5 -37q-3 -5 -3 -11v-354l3 -12q22 -40 65 -66q8 -4 12 -4h140q16 0 60.5 33t66.5 59z" />
    <glyph glyph-name="Emacron" unicode="&#x112;" horiz-adv-x="1056" 
d="M860 0h-770v1225h770v-205h-555v-309h516v-205h-516v-301h555v-205zM713 1329h-465v203h465v-203z" />
    <glyph glyph-name="emacron" unicode="&#x113;" horiz-adv-x="985" 
d="M827 344h-555v-84l2 -10q14 -23 39.5 -44.5t40.5 -21.5h199q13 0 38 19.5t38 34.5l6 8l190 -58q-14 -34 -58 -82.5t-73 -68.5q-68 -47 -147 -47h-193q-88 0 -149 43q-23 17 -55 48.5t-44 49.5q-38 52 -38 127v369q0 73 38 125q12 18 44 49.5t55 48.5q64 45 149 45h189
q85 0 149 -45q24 -18 55.5 -49t43.5 -49q36 -48 36 -125v-283zM623 526v97q0 10 -2 12q-9 15 -29 34t-39 29q-4 2 -12 2h-187q-15 0 -41 -21t-39 -44l-2 -12v-97h351zM686 1022h-465v203h465v-203z" />
    <glyph glyph-name="Ebreve" unicode="&#x114;" horiz-adv-x="1056" 
d="M860 0h-770v1225h770v-205h-555v-309h516v-205h-516v-301h555v-205zM573 1538h119q0 -89 -62 -151t-149 -62t-151 62.5t-64 150.5h119q0 -40 28 -69t68 -29q39 0 65.5 29t26.5 69z" />
    <glyph glyph-name="ebreve" unicode="&#x115;" horiz-adv-x="985" 
d="M827 344h-555v-84l2 -10q14 -23 39.5 -44.5t40.5 -21.5h199q13 0 38 19.5t38 34.5l6 8l190 -58q-14 -34 -58 -82.5t-73 -68.5q-68 -47 -147 -47h-193q-88 0 -149 43q-23 17 -55 48.5t-44 49.5q-38 52 -38 127v369q0 73 38 125q12 18 44 49.5t55 48.5q64 45 149 45h189
q85 0 149 -45q24 -18 55.5 -49t43.5 -49q36 -48 36 -125v-283zM623 526v97q0 10 -2 12q-9 15 -29 34t-39 29q-4 2 -12 2h-187q-15 0 -41 -21t-39 -44l-2 -12v-97h351zM541 1221h118q0 -89 -61.5 -151t-148.5 -62t-151.5 62.5t-64.5 150.5h119q0 -40 28.5 -69.5t68.5 -29.5
q39 0 65.5 29.5t26.5 69.5z" />
    <glyph glyph-name="Edotaccent" unicode="&#x116;" horiz-adv-x="1056" 
d="M860 0h-770v1225h770v-205h-555v-309h516v-205h-516v-301h555v-205zM586 1329h-219v219h219v-219z" />
    <glyph glyph-name="edotaccent" unicode="&#x117;" horiz-adv-x="985" 
d="M827 344h-555v-84l2 -10q14 -23 39.5 -44.5t40.5 -21.5h199q13 0 38 19.5t38 34.5l6 8l190 -58q-14 -34 -58 -82.5t-73 -68.5q-68 -47 -147 -47h-193q-88 0 -149 43q-23 17 -55 48.5t-44 49.5q-38 52 -38 127v369q0 73 38 125q12 18 44 49.5t55 48.5q64 45 149 45h189
q85 0 149 -45q24 -18 55.5 -49t43.5 -49q36 -48 36 -125v-283zM623 526v97q0 10 -2 12q-9 15 -29 34t-39 29q-4 2 -12 2h-187q-15 0 -41 -21t-39 -44l-2 -12v-97h351zM557 1012h-219v219h219v-219z" />
    <glyph glyph-name="Eogonek" unicode="&#x118;" horiz-adv-x="1056" 
d="M860 0h-770v1225h770v-205h-555v-309h516v-205h-516v-301h555v-205zM651 -346l-164 256l199 59l197 -315h-232z" />
    <glyph glyph-name="eogonek" unicode="&#x119;" horiz-adv-x="985" 
d="M416 -406l-164 256l199 60l196 -316h-231zM827 344h-555v-84l2 -10q14 -23 39.5 -44.5t40.5 -21.5h199q13 0 38 19.5t38 34.5l6 8l190 -58q-14 -34 -58 -82.5t-73 -68.5q-68 -47 -147 -47h-193q-88 0 -149 43q-23 17 -55 48.5t-44 49.5q-38 52 -38 127v369q0 73 38 125
q12 18 44 49.5t55 48.5q64 45 149 45h189q85 0 149 -45q24 -18 55.5 -49t43.5 -49q36 -48 36 -125v-283zM623 526v97q0 10 -2 12q-9 15 -29 34t-39 29q-4 2 -12 2h-187q-15 0 -41 -21t-39 -44l-2 -12v-97h351z" />
    <glyph glyph-name="Ecaron" unicode="&#x11a;" horiz-adv-x="1056" 
d="M860 0h-770v1225h770v-205h-555v-309h516v-205h-516v-301h555v-205zM549 1573h219l-201 -268h-192l-201 268h219l78 -117z" />
    <glyph glyph-name="ecaron" unicode="&#x11b;" horiz-adv-x="985" 
d="M827 344h-555v-84l2 -10q14 -23 39.5 -44.5t40.5 -21.5h199q13 0 38 19.5t38 34.5l6 8l190 -58q-14 -34 -58 -82.5t-73 -68.5q-68 -47 -147 -47h-193q-88 0 -149 43q-23 17 -55 48.5t-44 49.5q-38 52 -38 127v369q0 73 38 125q12 18 44 49.5t55 48.5q64 45 149 45h189
q85 0 149 -45q24 -18 55.5 -49t43.5 -49q36 -48 36 -125v-283zM623 526v97q0 10 -2 12q-9 15 -29 34t-39 29q-4 2 -12 2h-187q-15 0 -41 -21t-39 -44l-2 -12v-97h351zM522 1278h219l-200 -268h-193l-201 268h220l77 -117z" />
    <glyph glyph-name="Gcircumflex" unicode="&#x11c;" horiz-adv-x="1224" 
d="M305 291v641q0 4 2 8q17 27 45 52.5t47 35.5q5 2 11 2h278q8 0 10 -2q23 -15 47 -38.5t37 -39.5l13 -16l206 59q-10 24 -43 72q-119 170 -260 170h-299q-69 0 -127 -35q-30 -17 -78.5 -67t-70.5 -80q-33 -49 -33 -117v-647q0 -70 33 -119q20 -29 69 -77t80 -66
q61 -37 127 -37h299q9 0 18.5 2t17 4.5t18 7.5t16.5 8t16.5 9.5t14.5 9.5t14.5 10t11.5 8l11 -49h211q-11 68 -21 139.5t-14 109.5l-4 38v413h-480v-204h265v-199q0 -17 -35 -51.5t-60 -48.5q-4 -2 -10 -2h-278q-4 0 -7 1t-4 1q-27 15 -60.5 46t-33.5 48zM471 1305h-219
l201 268h192l201 -268h-219l-78 106z" />
    <glyph glyph-name="gcircumflex" unicode="&#x11d;" horiz-adv-x="1030" 
d="M860 885l-18 -185v-774q0 -82 -35 -129q-12 -18 -43 -49t-55 -49q-64 -45 -150 -45h-180q-77 0 -148 49q-29 20 -73 69t-58 83l191 57q2 -4 6 -8q13 -16 38 -36t38 -20h184q2 0 12 5q17 9 42 30.5t26 32.5v14v111q-69 -49 -121 -49h-158q-85 0 -149 45q-23 16 -53.5 48
t-44.5 52q-37 50 -37 127v359q0 77 37 127q14 20 44.5 52t53.5 48q64 45 149 45h158q65 0 135 -55l8 45h201zM360 186h150q10 0 14 2q26 13 58.5 40t54.5 53v323q-90 96 -127 96h-150q-4 0 -12 -4q-45 -27 -67 -67l-2 -11v-350q0 -8 2 -12q23 -41 67 -68q4 -2 12 -2z
M410 1010h-220l201 268h193l200 -268h-219l-78 106z" />
    <glyph glyph-name="Gbreve" unicode="&#x11e;" horiz-adv-x="1224" 
d="M305 932v-641q0 -17 33.5 -48t60.5 -46q1 0 4 -1t7 -1h278l10 2q25 14 60 48.5t35 51.5v199h-265v204h480v-413q14 -135 39 -287h-211l-11 49q-1 -1 -11.5 -8t-14.5 -10t-14.5 -9.5t-16.5 -9.5t-16.5 -8t-18 -7.5t-17 -4.5t-18.5 -2h-299q-66 0 -127 37q-31 18 -80 66
t-69 77q-33 49 -33 119v647q0 68 33 117q22 30 70.5 80t78.5 67q58 35 127 35h299q141 0 260 -170q33 -48 43 -72l-206 -59q-46 61 -97 94q-2 2 -10 2h-278l-11 -2q-19 -10 -47 -35.5t-45 -52.5zM631 1530h119q0 -89 -62 -151t-149 -62t-151 62.5t-64 150.5h118
q0 -40 28.5 -69t68.5 -29q39 0 65.5 29t26.5 69z" />
    <glyph glyph-name="gbreve" unicode="&#x11f;" horiz-adv-x="1030" 
d="M860 885l-18 -185v-774q0 -82 -35 -129q-12 -18 -43 -49t-55 -49q-64 -45 -150 -45h-180q-77 0 -148 49q-29 20 -73 69t-58 83l191 57q2 -4 6 -8q13 -16 38 -36t38 -20h184q2 0 12 5q17 9 42 30.5t26 32.5v14v111q-69 -49 -121 -49h-158q-85 0 -149 45q-23 16 -53.5 48
t-44.5 52q-37 50 -37 127v359q0 77 37 127q14 20 44.5 52t53.5 48q64 45 149 45h158q65 0 135 -55l8 45h201zM360 186h150q10 0 14 2q26 13 58.5 40t54.5 53v323q-90 96 -127 96h-150q-4 0 -12 -4q-45 -27 -67 -67l-2 -11v-350q0 -8 2 -12q23 -41 67 -68q4 -2 12 -2z
M551 1221h119q0 -89 -62 -151t-149 -62t-151 62.5t-64 150.5h118q0 -40 28.5 -69.5t68.5 -29.5q39 0 65.5 29.5t26.5 69.5z" />
    <glyph glyph-name="Gdotaccent" unicode="&#x120;" horiz-adv-x="1224" 
d="M305 291v641q0 4 2 8q17 27 45 52.5t47 35.5q5 2 11 2h278q8 0 10 -2q23 -15 47 -38.5t37 -39.5l13 -16l206 59q-10 24 -43 72q-119 170 -260 170h-299q-69 0 -127 -35q-30 -17 -78.5 -67t-70.5 -80q-33 -49 -33 -117v-647q0 -70 33 -119q20 -29 69 -77t80 -66
q61 -37 127 -37h299q9 0 18.5 2t17 4.5t18 7.5t16.5 8t16.5 9.5t14.5 9.5t14.5 10t11.5 8l11 -49h211q-11 68 -21 139.5t-14 109.5l-4 38v413h-480v-204h265v-199q0 -17 -35 -51.5t-60 -48.5q-4 -2 -10 -2h-278q-4 0 -7 1t-4 1q-27 15 -60.5 46t-33.5 48zM647 1329h-219v219
h219v-219z" />
    <glyph glyph-name="gdotaccent" unicode="&#x121;" horiz-adv-x="1030" 
d="M860 885l-18 -185v-774q0 -82 -35 -129q-12 -18 -43 -49t-55 -49q-64 -45 -150 -45h-180q-77 0 -148 49q-29 20 -73 69t-58 83l191 57q2 -4 6 -8q13 -16 38 -36t38 -20h184q2 0 12 5q17 9 42 30.5t26 32.5v14v111q-69 -49 -121 -49h-158q-85 0 -149 45q-23 16 -53.5 48
t-44.5 52q-37 50 -37 127v359q0 77 37 127q14 20 44.5 52t53.5 48q64 45 149 45h158q65 0 135 -55l8 45h201zM360 186h150q10 0 14 2q26 13 58.5 40t54.5 53v323q-90 96 -127 96h-150q-4 0 -12 -4q-45 -27 -67 -67l-2 -11v-350q0 -8 2 -12q23 -41 67 -68q4 -2 12 -2z
M578 1012h-220v219h220v-219z" />
    <glyph glyph-name="Gcommaaccent" unicode="&#x122;" horiz-adv-x="1224" 
d="M725 -150l-164 -256h-231l196 316zM305 932v-641q0 -17 33.5 -48t60.5 -46q1 0 4 -1t7 -1h278l10 2q25 14 60 48.5t35 51.5v199h-265v204h480v-413q14 -135 39 -287h-211l-11 49q-1 -1 -11.5 -8t-14.5 -10t-14.5 -9.5t-16.5 -9.5t-16.5 -8t-18 -7.5t-17 -4.5t-18.5 -2
h-299q-66 0 -127 37q-31 18 -80 66t-69 77q-33 49 -33 119v647q0 68 33 117q22 30 70.5 80t78.5 67q58 35 127 35h299q141 0 260 -170q33 -48 43 -72l-206 -59q-46 61 -97 94q-2 2 -10 2h-278l-11 -2q-19 -10 -47 -35.5t-45 -52.5z" />
    <glyph glyph-name="gcommaaccent" unicode="&#x123;" horiz-adv-x="1030" 
d="M860 885l-18 -185v-774q0 -82 -35 -129q-12 -18 -43 -49t-55 -49q-64 -45 -150 -45h-180q-77 0 -148 49q-29 20 -73 69t-58 83l191 57q2 -4 6 -8q13 -16 38 -36t38 -20h184q2 0 12 5q17 9 42 30.5t26 32.5v14v111q-69 -49 -121 -49h-158q-85 0 -149 45q-23 16 -53.5 48
t-44.5 52q-37 50 -37 127v359q0 77 37 127q14 20 44.5 52t53.5 48q64 45 149 45h158q65 0 135 -55l8 45h201zM360 186h150q10 0 14 2q26 13 58.5 40t54.5 53v323q-90 96 -127 96h-150q-4 0 -12 -4q-45 -27 -67 -67l-2 -11v-350q0 -8 2 -12q23 -41 67 -68q4 -2 12 -2z
M483 999l-188 56l188 243h242z" />
    <glyph glyph-name="Hcircumflex" unicode="&#x124;" horiz-adv-x="1171" 
d="M967 0h-215v506h-447v-506h-215v1225h215v-514h447v514h215v-1225zM461 1305h-219l200 268h193l201 -268h-220l-77 106z" />
    <glyph glyph-name="hcircumflex" unicode="&#x125;" horiz-adv-x="993" 
d="M618 621v-621h205v625q0 72 -37 125q-14 20 -44.5 52t-53.5 48q-61 45 -147 45h-148q-52 0 -121 -49v379h-204v-1225h204v608q21 26 63.5 59t61.5 33h142q10 0 12 -2q18 -11 36.5 -30t28.5 -37q2 -4 2 -10zM381 1305h-219l200 268h193l201 -268h-219l-78 106z" />
    <glyph glyph-name="Hbar" unicode="&#x126;" horiz-adv-x="1171" 
d="M969 0h-215v506h-449v-506h-215v965h-57v192h57v68h215v-68h449v68h215v-68h63v-192h-63v-965zM305 711h449v254h-449v-254z" />
    <glyph glyph-name="hbar" unicode="&#x127;" horiz-adv-x="997" 
d="M539 967h-263v-121q69 49 121 49h148q86 0 147 -45q23 -16 54.5 -48.5t44.5 -51.5q36 -52 36 -125v-625h-204v621l-2 10q-23 41 -66 67q-2 2 -12 2h-142q-19 0 -61.5 -33t-63.5 -59v-608h-204v967h-97v180h97v78h204v-78h263v-180z" />
    <glyph glyph-name="Itilde" unicode="&#x128;" horiz-adv-x="509" 
d="M305 0h-215v1225h215v-1225zM530 1360l-163 -47q-12 30 -39.5 46t-44.5 11l-133 -43q-79 -26 -162.5 18.5t-124.5 147.5l174 43q13 -30 34 -43t38 -8l139 43q81 26 161 -18.5t121 -149.5z" />
    <glyph glyph-name="itilde" unicode="&#x129;" horiz-adv-x="442" 
d="M295 -2h-205v883h205v-883zM522 1065l-164 -47q-12 30 -39.5 46t-44.5 11l-133 -43q-79 -26 -162 18.5t-124 147.5l174 43q13 -30 33.5 -43t37.5 -8l140 43q81 26 161 -18.5t121 -149.5z" />
    <glyph glyph-name="Imacron" unicode="&#x12a;" horiz-adv-x="509" 
d="M428 1360h-465v182h465v-182zM305 0h-215v1225h215v-1225z" />
    <glyph glyph-name="imacron" unicode="&#x12b;" horiz-adv-x="442" 
d="M426 1042h-465v183h465v-183zM295 -2h-205v883h205v-883z" />
    <glyph glyph-name="Ibreve" unicode="&#x12c;" horiz-adv-x="509" 
d="M305 0h-215v1225h215v-1225zM291 1538h119q0 -89 -62 -151t-149 -62t-151 62.5t-64 150.5h118q0 -40 28.5 -69t68.5 -29q39 0 65.5 29t26.5 69z" />
    <glyph glyph-name="ibreve" unicode="&#x12d;" horiz-adv-x="442" 
d="M295 -2h-205v883h205v-883zM287 1221h119q0 -89 -62 -151t-149 -62t-151 62.5t-64 150.5h118q0 -40 28.5 -69.5t68.5 -29.5q39 0 65.5 29.5t26.5 69.5z" />
    <glyph glyph-name="Iogonek" unicode="&#x12e;" horiz-adv-x="509" 
d="M223 -406l-164 256l199 60l197 -316h-232zM305 0h-215v1225h215v-1225z" />
    <glyph glyph-name="iogonek" unicode="&#x12f;" horiz-adv-x="442" 
d="M223 -406l-164 256l199 60l197 -316h-232zM301 1010h-219v219h219v-219zM295 0h-205v885h205v-885z" />
    <glyph glyph-name="Idotaccent" unicode="&#x130;" horiz-adv-x="509" 
d="M305 0h-215v1225h215v-1225zM305 1329h-219v219h219v-219z" />
    <glyph glyph-name="dotlessi" unicode="&#x131;" horiz-adv-x="442" 
d="M295 -2h-205v883h205v-883z" />
    <glyph glyph-name="IJ" unicode="&#x132;" horiz-adv-x="1484" 
d="M305 0h-215v1225h215v-1225zM1274 293q0 -65 -35 -117q-22 -31 -69 -79.5t-76 -65.5q-65 -37 -127 -37h-152q-136 0 -262 170q-11 15 -41 78l207 55q14 -32 38 -59t44 -37q1 -1 3 -1t4.5 -0.5t5.5 -0.5h3h139q10 -1 56.5 43t46.5 53v934h215v-936z" />
    <glyph glyph-name="ij" unicode="&#x133;" horiz-adv-x="894" 
d="M301 1010h-219v219h219v-219zM295 0h-205v885h205v-885zM768 1010h-219v219h219v-219zM473 -147h-166v-191h172q85 0 146 43q23 16 55 48.5t45 51.5q37 53 37 129v951h-205v-948l-2 -11q-19 -40 -70 -71q-4 -2 -12 -2z" />
    <glyph glyph-name="Jcircumflex" unicode="&#x134;" horiz-adv-x="966" 
d="M756 289q0 -65 -35 -117q-22 -31 -69.5 -79.5t-76.5 -65.5q-65 -37 -126 -37h-152q-136 0 -262 170q-11 15 -41 78l207 55q14 -32 38 -59t44 -37q1 -1 3 -1t4.5 -0.5t5.5 -0.5h3h139q10 -1 56.5 43t46.5 53v934h215v-936zM582 1305h-220l201 268h193l200 -268h-219
l-78 106z" />
    <glyph glyph-name="jcircumflex" unicode="&#x135;" horiz-adv-x="460" 
d="M43 -143h-170v-195h172q84 0 145 43q23 16 55.5 48.5t45.5 51.5q37 53 37 129v951h-205v-946l-2 -11q-20 -41 -66 -69q-4 -2 -12 -2zM158 1010h-219l200 268h193l200 -268h-219l-77 106z" />
    <glyph glyph-name="Kcommaaccent" unicode="&#x136;" horiz-adv-x="1069" 
d="M627 -150l-164 -256h-232l197 316zM1016 0h-264l-424 512h-23v-512h-215v1225h215v-510h21q74 88 216 260t208 250h264l-510 -611q53 -63 239.5 -288.5t272.5 -325.5z" />
    <glyph glyph-name="kcommaaccent" unicode="&#x137;" horiz-adv-x="921" 
d="M598 -150l-164 -256h-231l196 316zM844 0h-262l-279 373h-37v-373h-205v1225h205v-660h39q17 20 44 53.5t85 103.5t96 116.5t37 46.5h254l-340 -414z" />
    <glyph glyph-name="kgreenlandic" unicode="&#x138;" horiz-adv-x="921" 
d="M862 0h-270l-316 360v-360h-204v885h204v-316l295 316h281v-189l-180 2l-217 -231z" />
    <glyph glyph-name="Lacute" unicode="&#x139;" horiz-adv-x="983" 
d="M848 0h-758v1225h215v-1020h543v-205zM317 1294l-188 56l188 243h242z" />
    <glyph glyph-name="lacute" unicode="&#x13a;" horiz-adv-x="471" 
d="M309 0h-207l-20 152v1073h205v-1051zM301 1294l-188 56l188 243h242z" />
    <glyph glyph-name="Lcommaaccent" unicode="&#x13b;" horiz-adv-x="983" 
d="M606 -150l-164 -256h-231l197 316zM848 0h-758v1225h215v-1020h543v-205z" />
    <glyph glyph-name="lcommaaccent" unicode="&#x13c;" horiz-adv-x="471" 
d="M348 -150l-164 -256h-231l197 316zM313 0h-207l-24 158v1067h205v-1045z" />
    <glyph glyph-name="Lcaron" unicode="&#x13d;" horiz-adv-x="983" 
d="M688 1024l-16 -139h-203l18 166v260h201v-287zM848 0h-758v1225h215v-1020h543v-205z" />
    <glyph glyph-name="lcaron" unicode="&#x13e;" horiz-adv-x="667" 
d="M637 1024l-16 -139h-203l18 166v260h201v-287zM309 0h-207l-20 152v1073h205v-1051z" />
    <glyph glyph-name="Ldot" unicode="&#x13f;" horiz-adv-x="983" 
d="M848 0h-758v1225h215v-1020h543v-205zM741 506h-219v219h219v-219z" />
    <glyph glyph-name="ldot" unicode="&#x140;" horiz-adv-x="700" 
d="M309 0h-207l-20 152v1073h205v-1051zM637 510h-219v219h219v-219z" />
    <glyph glyph-name="Lslash" unicode="&#x141;" horiz-adv-x="1024" 
d="M571 664l-225 -119v-340h541v-205h-756v432l-94 -49l-90 172l184 96v574h215v-461l135 72z" />
    <glyph glyph-name="lslash" unicode="&#x142;" horiz-adv-x="626" 
d="M362 0h-202q-2 11 -8 46t-9.5 62t-3.5 44v284l-102 -53l-90 172l192 100v570h207v-461l135 72l90 -172l-225 -119v-371q0 -17 2 -39t6.5 -60.5t7.5 -74.5z" />
    <glyph glyph-name="Nacute" unicode="&#x143;" horiz-adv-x="1161" 
d="M956 0h-227l-424 813v-813h-215v1225h232l419 -824v824h215v-1225zM522 1298l-188 56l188 243h242z" />
    <glyph glyph-name="nacute" unicode="&#x144;" horiz-adv-x="1013" 
d="M844 0h-205v623q0 8 -2 12q-18 35 -64 63q-2 2 -16 2h-143q-43 0 -121 -84v-616h-205v702l-20 183h200l11 -47q78 57 129 57h151q86 0 150 -45q24 -18 55 -49t43 -49q37 -50 37 -125v-627zM461 999l-189 56l189 243h241z" />
    <glyph glyph-name="Ncommaaccent" unicode="&#x145;" horiz-adv-x="1161" 
d="M664 -150l-164 -256h-232l197 316zM956 0h-227l-424 813v-813h-215v1225h232l419 -824v824h215v-1225z" />
    <glyph glyph-name="ncommaaccent" unicode="&#x146;" horiz-adv-x="1013" 
d="M629 -150l-164 -256h-232l197 316zM844 0h-205v623q0 8 -2 12q-18 35 -64 63q-2 2 -16 2h-143q-43 0 -121 -84v-616h-205v702l-20 183h200l11 -47q78 57 129 57h151q86 0 150 -45q24 -18 55 -49t43 -49q37 -50 37 -125v-627z" />
    <glyph glyph-name="Ncaron" unicode="&#x147;" horiz-adv-x="1161" 
d="M956 0h-227l-424 813v-813h-215v1225h232l419 -824v824h215v-1225zM606 1577h219l-200 -268h-193l-201 268h220l77 -117z" />
    <glyph glyph-name="ncaron" unicode="&#x148;" horiz-adv-x="1013" 
d="M844 0h-205v623q0 8 -2 12q-18 35 -64 63q-2 2 -16 2h-143q-43 0 -121 -84v-616h-205v702l-20 183h200l11 -47q78 57 129 57h151q86 0 150 -45q24 -18 55 -49t43 -49q37 -50 37 -125v-627zM537 1278h219l-201 -268h-193l-200 268h219l78 -117z" />
    <glyph glyph-name="napostrophe" unicode="&#x149;" 
d="M154 1024l-17 -139h-203l19 166v260h201v-287zM967 0h-205v623q0 8 -2 12q-18 35 -64 63q-2 2 -16 2h-143q-43 0 -121 -84v-616h-205v702l-21 183h201l10 -47q78 57 129 57h152q85 0 149 -45q24 -18 55.5 -49t43.5 -49q37 -50 37 -125v-627z" />
    <glyph glyph-name="Eng" unicode="&#x14a;" horiz-adv-x="1161" 
d="M752 0h-23l-424 813v-813h-215v1225h232l419 -824v824h215v-1225v-66q0 -77 -36 -129q-13 -19 -45.5 -51.5t-55.5 -48.5q-61 -43 -145 -43h-172v195h170l12 2q46 28 66 69q2 7 2 11v61z" />
    <glyph glyph-name="eng" unicode="&#x14b;" horiz-adv-x="1013" 
d="M844 0v-66q0 -76 -37 -129q-13 -19 -45 -51.5t-55 -48.5q-61 -43 -146 -43h-172v195h170l12 2q46 28 66 69q2 7 2 11v61v623q0 8 -2 12q-18 35 -64 63q-2 2 -16 2h-143q-43 0 -121 -84v-616h-205v702l-20 183h202l9 -47q78 57 129 57h151q86 0 150 -45q24 -18 55 -49
t43 -49q37 -50 37 -125v-627z" />
    <glyph glyph-name="Omacron" unicode="&#x14c;" horiz-adv-x="1206" 
d="M1022 291q0 -68 -33 -117q-26 -33 -73 -81.5t-76 -65.5q-61 -37 -127 -37h-312q-66 0 -127 37q-30 17 -78.5 67t-70.5 80q-33 49 -33 117v641q0 68 33 117q22 30 70.5 80t78.5 67q61 37 127 37h312q66 0 127 -37q29 -17 76 -65.5t73 -81.5q33 -49 33 -117v-641zM307 926
v-633q0 -6 2 -8q18 -27 45 -53t45 -35q4 -2 11 -2h295q6 0 10 2q18 9 45 35t45 53l2 8v633q0 8 -2 10q-18 27 -45 54t-45 36q-4 2 -10 2h-295q-9 0 -11 -2q-18 -9 -45 -36t-45 -54zM797 1360h-465v182h465v-182z" />
    <glyph glyph-name="omacron" unicode="&#x14d;" horiz-adv-x="991" 
d="M829 258q0 -79 -34 -125q-12 -19 -43.5 -51t-55.5 -49q-61 -43 -149 -43h-193q-86 0 -147 43q-24 18 -56.5 50t-44.5 50q-34 46 -34 125v369q0 79 34 125q11 18 43.5 48.5t57.5 49.5q64 45 147 45h193q85 0 149 -45q24 -18 55.5 -49t43.5 -49q34 -46 34 -125v-369z
M276 621v-373q0 -11 22.5 -30t45.5 -32q4 -2 12 -2h189q4 0 12 4q18 10 42.5 29.5t25.5 30.5v373q0 6 -2 12q-9 16 -29.5 35.5t-38.5 29.5q-4 2 -10 2h-189q-6 0 -10 -2q-45 -25 -67 -65zM686 1042h-465v183h465v-183z" />
    <glyph glyph-name="Obreve" unicode="&#x14e;" horiz-adv-x="1206" 
d="M1022 291q0 -68 -33 -117q-26 -33 -73 -81.5t-76 -65.5q-61 -37 -127 -37h-312q-66 0 -127 37q-30 17 -78.5 67t-70.5 80q-33 49 -33 117v641q0 68 33 117q22 30 70.5 80t78.5 67q61 37 127 37h312q66 0 127 -37q29 -17 76 -65.5t73 -81.5q33 -49 33 -117v-641zM307 926
v-633q0 -6 2 -8q18 -27 45 -53t45 -35q4 -2 11 -2h295q6 0 10 2q18 9 45 35t45 53l2 8v633q0 8 -2 10q-18 27 -45 54t-45 36q-4 2 -10 2h-295q-9 0 -11 -2q-18 -9 -45 -36t-45 -54zM659 1542h119q0 -89 -62 -151t-149 -62t-151 62.5t-64 150.5h119q0 -40 28 -69t68 -29
q39 0 65.5 29t26.5 69z" />
    <glyph glyph-name="obreve" unicode="&#x14f;" horiz-adv-x="991" 
d="M829 258q0 -79 -34 -125q-12 -19 -43.5 -51t-55.5 -49q-61 -43 -149 -43h-193q-86 0 -147 43q-24 18 -56.5 50t-44.5 50q-34 46 -34 125v369q0 79 34 125q11 18 43.5 48.5t57.5 49.5q64 45 147 45h193q85 0 149 -45q24 -18 55.5 -49t43.5 -49q34 -46 34 -125v-369z
M276 621v-373q0 -11 22.5 -30t45.5 -32q4 -2 12 -2h189q4 0 12 4q18 10 42.5 29.5t25.5 30.5v373q0 6 -2 12q-9 16 -29.5 35.5t-38.5 29.5q-4 2 -10 2h-189q-6 0 -10 -2q-45 -25 -67 -65zM545 1221h119q0 -89 -62 -151t-149 -62t-151 62.5t-64 150.5h118q0 -40 28.5 -69.5
t68.5 -29.5q39 0 65.5 29.5t26.5 69.5z" />
    <glyph glyph-name="Ohungarumlaut" unicode="&#x150;" horiz-adv-x="1206" 
d="M1022 291q0 -68 -33 -117q-26 -33 -73 -81.5t-76 -65.5q-61 -37 -127 -37h-312q-66 0 -127 37q-30 17 -78.5 67t-70.5 80q-33 49 -33 117v641q0 68 33 117q22 30 70.5 80t78.5 67q61 37 127 37h312q66 0 127 -37q29 -17 76 -65.5t73 -81.5q33 -49 33 -117v-641zM307 926
v-633q0 -6 2 -8q18 -27 45 -53t45 -35q4 -2 11 -2h295q6 0 10 2q18 9 45 35t45 53l2 8v633q0 8 -2 10q-18 27 -45 54t-45 36q-4 2 -10 2h-295q-9 0 -11 -2q-18 -9 -45 -36t-45 -54zM676 1284l-141 45l188 244h192zM395 1284l-141 45l188 244h193z" />
    <glyph glyph-name="ohungarumlaut" unicode="&#x151;" horiz-adv-x="991" 
d="M829 258q0 -79 -34 -125q-12 -19 -43.5 -51t-55.5 -49q-61 -43 -149 -43h-193q-86 0 -147 43q-24 18 -56.5 50t-44.5 50q-34 46 -34 125v369q0 79 34 125q11 18 43.5 48.5t57.5 49.5q64 45 147 45h193q85 0 149 -45q24 -18 55.5 -49t43.5 -49q34 -46 34 -125v-369z
M276 621v-373q0 -11 22.5 -30t45.5 -32q4 -2 12 -2h189q4 0 12 4q18 10 42.5 29.5t25.5 30.5v373q0 6 -2 12q-9 16 -29.5 35.5t-38.5 29.5q-4 2 -10 2h-189q-6 0 -10 -2q-45 -25 -67 -65zM592 989l-141 45l188 244h192zM311 989l-141 45l188 244h193z" />
    <glyph glyph-name="OE" unicode="&#x152;" horiz-adv-x="1734" 
d="M1538 0h-750v10q-52 -20 -96 -20h-291q-66 0 -127 37q-30 17 -78.5 67t-70.5 80q-33 49 -33 117v641q0 68 33 117q22 30 70.5 80t78.5 67q61 37 127 37h291q42 0 96 -21v13h750v-205h-534v-309h495v-205h-495v-301h534v-205zM307 926v-633q0 -6 2 -8q18 -27 45 -53
t45 -35q4 -2 11 -2h274q6 0 10 2q18 9 45 35t45 53l2 8v633q0 8 -2 10q-18 27 -45 54t-45 36q-4 2 -10 2h-274q-9 0 -11 -2q-18 -9 -45 -36t-45 -54z" />
    <glyph glyph-name="oe" unicode="&#x153;" horiz-adv-x="1601" 
d="M829 258l2 -8q14 -24 39.5 -47t40.5 -23h199q13 0 37.5 20.5t38.5 37.5q6 6 6 8l190 -58q-14 -34 -58 -82.5t-73 -68.5q-68 -47 -147 -47h-193q-88 0 -149 43q-18 10 -33 26q-15 -12 -33 -26q-61 -43 -149 -43h-193q-86 0 -147 43q-24 18 -56.5 50t-44.5 50
q-34 46 -34 125v369q0 79 34 125q11 18 43.5 48.5t57.5 49.5q64 45 147 45h193q85 0 149 -45q4 -3 15.5 -12.5t17.5 -16.5q7 8 33 29q64 45 149 45h189q85 0 149 -45q24 -18 55.5 -49t43.5 -49q36 -48 36 -125v-289h-555v-80zM274 621v-373q0 -11 24 -31t46 -33q4 -2 12 -2
h189q4 0 12 4q17 10 41 29.5t27 30.5v12v367q0 1 -1 3.5t-1 4.5q-9 16 -29.5 35.5t-38.5 29.5q-4 2 -10 2h-189q-6 0 -10 -2q-49 -27 -70 -65zM1180 530v93q0 10 -2 12q-9 15 -29 34t-39 29q-4 2 -12 2h-187q-15 0 -41 -21t-39 -44q-2 -2 -2 -6v-2v-97h351zM1190 246
q2 2 2 0h-2z" />
    <glyph glyph-name="Racute" unicode="&#x154;" horiz-adv-x="1185" 
d="M958 762q0 -72 -36 -125q-13 -20 -51 -57t-60 -52q-25 -19 -53 -28l243 -500h-233l-227 483h-236v-483h-215v1225h576q81 0 145 -45q21 -15 59 -53.5t52 -59.5q36 -53 36 -125v-180zM743 764v176q0 10 -2 14q-11 20 -31 42.5t-34 23.5h-371v-332h361q13 0 38 23t37 45
q2 4 2 8zM516 1294l-188 56l188 243h242z" />
    <glyph glyph-name="racute" unicode="&#x155;" horiz-adv-x="851" 
d="M807 696l-191 -57q-15 20 -41 40.5t-51 20.5h-110q-54 0 -125 -88v-612h-205v702l-16 183h198l10 -49q81 59 132 59h122q79 0 152 -51q33 -24 72 -69t53 -79zM455 999l-189 56l189 243h241z" />
    <glyph glyph-name="Rcommaaccent" unicode="&#x156;" horiz-adv-x="1185" 
d="M668 -150l-164 -256h-232l197 316zM958 762q0 -72 -36 -125q-13 -20 -51 -57t-60 -52q-25 -19 -53 -28l243 -500h-233l-227 483h-236v-483h-215v1225h576q81 0 145 -45q21 -15 59 -53.5t52 -59.5q36 -53 36 -125v-180zM743 764v176q0 10 -2 14q-11 20 -31 42.5t-34 23.5
h-371v-332h361q13 0 38 23t37 45q2 4 2 8z" />
    <glyph glyph-name="rcommaaccent" unicode="&#x157;" horiz-adv-x="851" 
d="M575 -150l-163 -256h-232l197 316zM807 696l-191 -57q-15 20 -41 40.5t-51 20.5h-110q-54 0 -125 -88v-612h-205v702l-16 183h198l10 -49q81 59 132 59h122q79 0 152 -51q33 -24 72 -69t53 -79z" />
    <glyph glyph-name="Rcaron" unicode="&#x158;" horiz-adv-x="1185" 
d="M958 762q0 -72 -36 -125q-13 -20 -51 -57t-60 -52q-25 -19 -53 -28l243 -500h-233l-227 483h-236v-483h-215v1225h576q81 0 145 -45q21 -15 59 -53.5t52 -59.5q36 -53 36 -125v-180zM743 764v176q0 10 -2 14q-11 20 -31 42.5t-34 23.5h-371v-332h361q13 0 38 23t37 45
q2 4 2 8zM569 1573h219l-200 -268h-193l-200 268h219l78 -117z" />
    <glyph glyph-name="rcaron" unicode="&#x159;" horiz-adv-x="851" 
d="M807 696l-191 -57q-15 20 -41 40.5t-51 20.5h-110q-54 0 -125 -88v-612h-205v702l-16 183h198l10 -49q81 59 132 59h122q79 0 152 -51q33 -24 72 -69t53 -79zM504 1278h219l-201 -268h-192l-201 268h219l78 -117z" />
    <glyph glyph-name="Sacute" unicode="&#x15a;" horiz-adv-x="1169" 
d="M995 291q0 -73 -32 -117q-20 -30 -70 -79.5t-80 -67.5q-68 -37 -127 -37h-356q-135 0 -260 170q-17 25 -37 63l203 68q41 -57 90 -94q4 -2 14 -2h336l12 2q23 12 57.5 47t34.5 47v121q0 13 -8 22.5t-16 11.5l-533 152q-75 21 -117.5 84.5t-42.5 138.5v111q0 71 31 117
q20 30 70.5 79.5t81.5 67.5q68 37 127 37h303q44 0 84 -15.5t73.5 -44.5t55.5 -53t47 -57q24 -35 41 -72l-207 -59q-47 67 -90 94q-2 2 -12 2h-289l-12 -2q-24 -12 -56 -45t-32 -45v-102q0 -13 7 -23t15 -12l535 -156q74 -21 116.5 -85t42.5 -138v-129zM541 1294l-189 56
l189 243h241z" />
    <glyph glyph-name="sacute" unicode="&#x15b;" horiz-adv-x="960" 
d="M225 240q12 -14 37.5 -34.5t38.5 -21.5h238q19 0 46 26.5t27 47.5v49q0 27 -26 29l-148.5 11t-187.5 15q-86 6 -139.5 60t-53.5 149v62q0 74 37 125q95 137 238 137h196q80 0 148 -47q35 -25 76 -69.5t57 -82.5l-193 -57q-2 4 -6 8q-13 15 -37.5 34t-37.5 19h-197
q-19 0 -27 -4q-9 -4 -24 -18t-23 -29q-2 -4 -2 -20v-49q0 -6 9 -16t22 -11q24 -3 142 -14t179 -17q90 -10 146.5 -62.5t56.5 -148.5v-57q0 -72 -39 -125q-13 -20 -40.5 -48.5t-51.5 -45.5q-64 -45 -145 -45h-234q-76 0 -147 49q-35 25 -75 69t-56 82l190 58zM461 999
l-189 56l189 243h241z" />
    <glyph glyph-name="Scircumflex" unicode="&#x15c;" horiz-adv-x="1169" 
d="M995 291q0 -73 -32 -117q-20 -30 -70 -79.5t-80 -67.5q-68 -37 -127 -37h-356q-135 0 -260 170q-17 25 -37 63l203 68q41 -57 90 -94q4 -2 14 -2h336l12 2q23 12 57.5 47t34.5 47v121q0 13 -8 22.5t-16 11.5l-533 152q-75 21 -117.5 84.5t-42.5 138.5v111q0 71 31 117
q20 30 70.5 79.5t81.5 67.5q68 37 127 37h303q44 0 84 -15.5t73.5 -44.5t55.5 -53t47 -57q24 -35 41 -72l-207 -59q-47 67 -90 94q-2 2 -12 2h-289l-12 -2q-24 -12 -56 -45t-32 -45v-102q0 -13 7 -23t15 -12l535 -156q74 -21 116.5 -85t42.5 -138v-129zM465 1305h-219
l200 268h193l201 -268h-219l-78 106z" />
    <glyph glyph-name="scircumflex" unicode="&#x15d;" horiz-adv-x="960" 
d="M365 1010h-220l201 268h193l200 -268h-219l-78 106zM225 240q12 -14 37.5 -34.5t38.5 -21.5h238q19 0 46 26.5t27 47.5v49q0 27 -26 29l-148.5 11t-187.5 15q-86 6 -139.5 60t-53.5 149v62q0 74 37 125q95 137 238 137h196q80 0 148 -47q35 -25 76 -69.5t57 -82.5
l-193 -57q-2 4 -6 8q-13 15 -37.5 34t-37.5 19h-197q-19 0 -27 -4q-9 -4 -24 -18t-23 -29q-2 -4 -2 -20v-49q0 -6 9 -16t22 -11q24 -3 142 -14t179 -17q90 -10 146.5 -62.5t56.5 -148.5v-57q0 -72 -39 -125q-13 -20 -40.5 -48.5t-51.5 -45.5q-64 -45 -145 -45h-234
q-76 0 -147 49q-35 25 -75 69t-56 82l190 58z" />
    <glyph glyph-name="Scedilla" unicode="&#x15e;" horiz-adv-x="1169" 
d="M688 -150l-164 -256h-231l196 316zM995 291q0 -73 -32 -117q-20 -30 -70 -79.5t-80 -67.5q-68 -37 -127 -37h-356q-135 0 -260 170q-17 25 -37 63l203 68q41 -57 90 -94q4 -2 14 -2h336l12 2q23 12 57.5 47t34.5 47v121q0 13 -8 22.5t-16 11.5l-533 152
q-75 21 -117.5 84.5t-42.5 138.5v111q0 71 31 117q20 30 70.5 79.5t81.5 67.5q68 37 127 37h303q44 0 84 -15.5t73.5 -44.5t55.5 -53t47 -57q24 -35 41 -72l-207 -59q-47 67 -90 94q-2 2 -12 2h-289l-12 -2q-24 -12 -56 -45t-32 -45v-102q0 -13 7 -23t15 -12l535 -156
q74 -21 116.5 -85t42.5 -138v-129z" />
    <glyph glyph-name="scedilla" unicode="&#x15f;" horiz-adv-x="960" 
d="M606 -150l-164 -256h-231l197 316zM225 240q12 -14 37.5 -34.5t38.5 -21.5h238q19 0 46 26.5t27 47.5v49q0 27 -26 29l-148.5 11t-187.5 15q-86 6 -139.5 60t-53.5 149v62q0 74 37 125q95 137 238 137h196q80 0 148 -47q35 -25 76 -69.5t57 -82.5l-193 -57q-2 4 -6 8
q-13 15 -37.5 34t-37.5 19h-197q-19 0 -27 -4q-9 -4 -24 -18t-23 -29q-2 -4 -2 -20v-49q0 -6 9 -16t22 -11q24 -3 142 -14t179 -17q90 -10 146.5 -62.5t56.5 -148.5v-57q0 -72 -39 -125q-13 -20 -40.5 -48.5t-51.5 -45.5q-64 -45 -145 -45h-234q-76 0 -147 49q-35 25 -75 69
t-56 82l190 58z" />
    <glyph glyph-name="Scaron" unicode="&#x160;" horiz-adv-x="1169" 
d="M995 291q0 -73 -32 -117q-20 -30 -70 -79.5t-80 -67.5q-68 -37 -127 -37h-356q-135 0 -260 170q-17 25 -37 63l203 68q41 -57 90 -94q4 -2 14 -2h336l12 2q23 12 57.5 47t34.5 47v121q0 13 -8 22.5t-16 11.5l-533 152q-75 21 -117.5 84.5t-42.5 138.5v111q0 71 31 117
q20 30 70.5 79.5t81.5 67.5q68 37 127 37h303q44 0 84 -15.5t73.5 -44.5t55.5 -53t47 -57q24 -35 41 -72l-207 -59q-47 67 -90 94q-2 2 -12 2h-289l-12 -2q-24 -12 -56 -45t-32 -45v-102q0 -13 7 -23t15 -12l535 -156q74 -21 116.5 -85t42.5 -138v-129zM596 1573h219
l-201 -268h-192l-201 268h219l78 -117z" />
    <glyph glyph-name="scaron" unicode="&#x161;" horiz-adv-x="960" 
d="M516 1278h219l-200 -268h-193l-201 268h219l78 -117zM225 240q12 -14 37.5 -34.5t38.5 -21.5h238q19 0 46 26.5t27 47.5v49q0 27 -26 29l-148.5 11t-187.5 15q-86 6 -139.5 60t-53.5 149v62q0 74 37 125q95 137 238 137h196q80 0 148 -47q35 -25 76 -69.5t57 -82.5
l-193 -57q-2 4 -6 8q-13 15 -37.5 34t-37.5 19h-197q-19 0 -27 -4q-9 -4 -24 -18t-23 -29q-2 -4 -2 -20v-49q0 -6 9 -16t22 -11q24 -3 142 -14t179 -17q90 -10 146.5 -62.5t56.5 -148.5v-57q0 -72 -39 -125q-13 -20 -40.5 -48.5t-51.5 -45.5q-64 -45 -145 -45h-234
q-76 0 -147 49q-35 25 -75 69t-56 82l190 58z" />
    <glyph glyph-name="Tcommaaccent" unicode="&#x162;" horiz-adv-x="1042" 
d="M645 -150l-164 -256h-231l196 316zM903 1020h-332v-1020h-215v1020h-331v205h878v-205z" />
    <glyph glyph-name="tcommaaccent" unicode="&#x163;" horiz-adv-x="729" 
d="M569 -150l-163 -256h-232l197 316zM342 690v-416q0 -8 2 -12q11 -21 35.5 -44t44.5 -23h170v-195h-172q-87 0 -148 43q-23 16 -53.5 48t-44.5 52q-39 56 -39 129v418h-137v195h137v340h205v-340h254v-195h-254z" />
    <glyph glyph-name="Tcaron" unicode="&#x164;" horiz-adv-x="1042" 
d="M913 1020h-331v-1020h-215v1020h-332v205h878v-205zM543 1573h219l-201 -268h-192l-201 268h219l78 -117z" />
    <glyph glyph-name="tcaron" unicode="&#x165;" horiz-adv-x="1015" 
d="M979 1024l-16 -139h-203l18 166v260h201v-287zM342 690v-416q0 -8 2 -12q11 -21 35.5 -44t44.5 -23h149v-195h-151q-87 0 -148 43q-23 16 -53.5 48t-44.5 52q-39 56 -39 129v418h-137v195h137v340h205v-340h254v-195h-254z" />
    <glyph glyph-name="Tbar" unicode="&#x166;" horiz-adv-x="1042" 
d="M764 508h-182v-508h-215v508h-199v194h199v320h-332v203h878v-203h-331v-320h182v-194z" />
    <glyph glyph-name="tbar" unicode="&#x167;" horiz-adv-x="729" 
d="M594 403h-252v-129q0 -8 2 -12q11 -21 35.5 -44t44.5 -23h170v-195h-172q-87 0 -148 43q-23 16 -53.5 48t-44.5 52q-39 56 -39 129v131h-139v195h139v92h-137v195h137v340h205v-340h254v-195h-254v-92h252v-195z" />
    <glyph glyph-name="Utilde" unicode="&#x168;" 
d="M733 1225v-932q0 -4 -2 -8q-18 -27 -44 -53t-44 -35q-4 -2 -10 -2h-244q-6 0 -10 2q-19 9 -45 34.5t-45 53.5l-2 10v930h-215v-934q0 -70 32 -117q21 -30 70.5 -80t79.5 -67q61 -37 127 -37h260q64 0 125 37q31 17 78.5 66t70.5 81q33 49 33 117v934h-215zM840 1360
l-164 -47q-12 30 -39.5 46t-44.5 11l-133 -43q-79 -26 -162.5 18.5t-124.5 147.5l174 43q13 -30 34 -43t38 -8l139 43q81 26 161.5 -18.5t121.5 -149.5z" />
    <glyph glyph-name="utilde" unicode="&#x169;" horiz-adv-x="999" 
d="M840 0h-201l-8 51q-81 -59 -129 -59h-154q-88 0 -149 43q-24 17 -55.5 49t-43.5 51q-37 50 -37 125v625h205v-621q0 -10 2 -14q16 -30 68 -62q4 -2 12 -2h146q14 0 56 29.5t64 52.5v617h205v-703zM768 1065l-164 -47q-12 30 -39.5 46t-44.5 11l-133 -43
q-79 -26 -162.5 18.5t-124.5 147.5l174 43q13 -30 34 -43t38 -8l139 43q81 26 161.5 -18.5t121.5 -149.5z" />
    <glyph glyph-name="Umacron" unicode="&#x16a;" 
d="M733 1225v-932q0 -4 -2 -8q-18 -27 -44 -53t-44 -35q-4 -2 -10 -2h-244q-6 0 -10 2q-19 9 -45 34.5t-45 53.5l-2 10v930h-215v-934q0 -70 32 -117q21 -30 70.5 -80t79.5 -67q61 -37 127 -37h260q64 0 125 37q31 17 78.5 66t70.5 81q33 49 33 117v934h-215zM737 1339h-465
v203h465v-203z" />
    <glyph glyph-name="umacron" unicode="&#x16b;" horiz-adv-x="999" 
d="M840 0h-201l-8 51q-81 -59 -129 -59h-154q-88 0 -149 43q-24 17 -55.5 49t-43.5 51q-37 50 -37 125v625h205v-621q0 -10 2 -14q16 -30 68 -62q4 -2 12 -2h146q14 0 56 29.5t64 52.5v617h205v-703zM680 1022h-465v203h465v-203z" />
    <glyph glyph-name="Ubreve" unicode="&#x16c;" 
d="M733 293v932h215v-934q0 -68 -33 -117q-23 -32 -70.5 -81t-78.5 -66q-61 -37 -125 -37h-260q-66 0 -127 37q-30 17 -79.5 67t-70.5 80q-32 47 -32 117v934h215v-930q0 -8 2 -10q19 -28 45 -53.5t45 -34.5l10 -2h244q6 0 10 2q18 9 44 35t44 53zM606 1538h119
q0 -89 -62 -151t-149 -62t-151 62.5t-64 150.5h119q0 -40 28 -69t68 -29q39 0 65.5 29t26.5 69z" />
    <glyph glyph-name="ubreve" unicode="&#x16d;" horiz-adv-x="999" 
d="M840 0h-201l-8 51q-81 -59 -129 -59h-154q-88 0 -149 43q-24 17 -55.5 49t-43.5 51q-37 50 -37 125v625h205v-621q0 -10 2 -14q16 -30 68 -62q4 -2 12 -2h146q14 0 56 29.5t64 52.5v617h205v-703zM539 1221h118q0 -89 -62 -151t-149 -62t-151 62.5t-64 150.5h119
q0 -40 28.5 -69.5t67.5 -29.5t66 29.5t27 69.5z" />
    <glyph glyph-name="Uring" unicode="&#x16e;" 
d="M733 1225v-932q0 -4 -2 -8q-18 -27 -44 -53t-44 -35q-4 -2 -10 -2h-244q-6 0 -10 2q-19 9 -45 34.5t-45 53.5l-2 10v930h-215v-934q0 -70 32 -117q21 -30 70.5 -80t79.5 -67q61 -37 127 -37h260q64 0 125 37q31 17 78.5 66t70.5 81q33 49 33 117v934h-215zM721 1516
q0 -89 -62 -151t-149 -62t-151 62.5t-64 150.5q0 84 64 146t151 62q86 0 148.5 -61.5t62.5 -146.5zM602 1516q0 37 -26.5 64.5t-65.5 27.5t-67.5 -27.5t-28.5 -64.5q0 -40 28.5 -69.5t67.5 -29.5t65.5 29.5t26.5 69.5z" />
    <glyph glyph-name="uring" unicode="&#x16f;" horiz-adv-x="999" 
d="M840 0h-201l-8 51q-81 -59 -129 -59h-154q-88 0 -149 43q-24 17 -55.5 49t-43.5 51q-37 50 -37 125v625h205v-621q0 -10 2 -14q16 -30 68 -62q4 -2 12 -2h146q14 0 56 29.5t64 52.5v617h205v-703zM653 1221q0 -89 -62 -151t-149 -62t-151 62.5t-64 150.5q0 85 64.5 147
t150.5 62t148.5 -62t62.5 -147zM535 1221q0 37 -27 64.5t-66 27.5t-67.5 -27.5t-28.5 -64.5q0 -40 28.5 -69.5t67.5 -29.5t66 29.5t27 69.5z" />
    <glyph glyph-name="Uhungarumlaut" unicode="&#x170;" 
d="M733 1225v-932q0 -4 -2 -8q-18 -27 -44 -53t-44 -35q-4 -2 -10 -2h-244q-6 0 -10 2q-19 9 -45 34.5t-45 53.5l-2 10v930h-215v-934q0 -70 32 -117q21 -30 70.5 -80t79.5 -67q61 -37 127 -37h260q64 0 125 37q31 17 78.5 66t70.5 81q33 49 33 117v934h-215zM571 1284
l-141 45l188 244h193zM291 1284l-141 45l188 244h192z" />
    <glyph glyph-name="uhungarumlaut" unicode="&#x171;" horiz-adv-x="999" 
d="M840 0h-201l-8 51q-81 -59 -129 -59h-154q-88 0 -149 43q-24 17 -55.5 49t-43.5 51q-37 50 -37 125v625h205v-621q0 -10 2 -14q16 -30 68 -62q4 -2 12 -2h146q14 0 56 29.5t64 52.5v617h205v-703zM567 989l-141 45l188 244h193zM287 989l-142 45l189 244h192z" />
    <glyph glyph-name="Uogonek" unicode="&#x172;" 
d="M485 -406l-163 256l198 60l197 -316h-232zM733 293v932h215v-934q0 -68 -33 -117q-23 -32 -70.5 -81t-78.5 -66q-61 -37 -125 -37h-260q-66 0 -127 37q-30 17 -79.5 67t-70.5 80q-32 47 -32 117v934h215v-930q0 -8 2 -10q19 -28 45 -53.5t45 -34.5l10 -2h244q6 0 10 2
q18 9 44 35t44 53z" />
    <glyph glyph-name="uogonek" unicode="&#x173;" horiz-adv-x="999" 
d="M416 -406l-164 256l199 60l196 -316h-231zM840 0h-201l-8 51q-81 -59 -129 -59h-154q-88 0 -149 43q-24 17 -55.5 49t-43.5 51q-37 50 -37 125v625h205v-621q0 -10 2 -14q16 -30 68 -62q4 -2 12 -2h146q14 0 56 29.5t64 52.5v617h205v-703z" />
    <glyph glyph-name="Wcircumflex" unicode="&#x174;" horiz-adv-x="1511" 
d="M1438 1225l-285 -1225h-244l-196 821l-199 -821h-246l-280 1225h221l184 -860l203 860h229l203 -860l182 860h228zM639 1305h-219l201 268h192l201 -268h-219l-78 106z" />
    <glyph glyph-name="wcircumflex" unicode="&#x175;" horiz-adv-x="1372" 
d="M1282 885l-274 -885h-209l-166 555l-170 -555h-209l-270 885h217l164 -572l161 572h215l158 -572l168 572h215zM567 1010h-219l201 268h192l201 -268h-219l-78 106z" />
    <glyph glyph-name="Ycircumflex" unicode="&#x176;" horiz-adv-x="1064" 
d="M987 1225l-405 -690v-535h-215v535l-402 690h238l272 -465l273 465h239zM397 1305h-219l201 268h192l201 -268h-219l-78 106z" />
    <glyph glyph-name="ycircumflex" unicode="&#x177;" horiz-adv-x="880" 
d="M870 885l-434 -1217h-207l123 332h-18l-326 885h230l206 -600l209 600h217zM365 1010h-220l201 268h193l200 -268h-219l-78 106z" />
    <glyph glyph-name="Ydieresis" unicode="&#x178;" horiz-adv-x="1064" 
d="M987 1225l-405 -690v-535h-215v535l-402 690h238l272 -465l273 465h239zM739 1335h-198v211h198v-211zM410 1335h-199v211h199v-211z" />
    <glyph glyph-name="Zacute" unicode="&#x179;" horiz-adv-x="1005" 
d="M866 0h-807v174l539 846h-539v205h807v-178l-530 -842h530v-205zM498 1294l-189 56l189 243h241z" />
    <glyph glyph-name="zacute" unicode="&#x17a;" horiz-adv-x="909" 
d="M776 0h-704v166l407 524h-424v195h701v-168l-410 -522h430v-195zM461 999l-189 56l189 243h241z" />
    <glyph glyph-name="Zdotaccent" unicode="&#x17b;" horiz-adv-x="1005" 
d="M866 0h-807v174l539 846h-539v205h807v-178l-530 -842h530v-205zM573 1307h-219v219h219v-219z" />
    <glyph glyph-name="zdotaccent" unicode="&#x17c;" horiz-adv-x="909" 
d="M776 0h-704v166l407 524h-424v195h701v-168l-410 -522h430v-195zM545 1012h-219v219h219v-219z" />
    <glyph glyph-name="Zcaron" unicode="&#x17d;" horiz-adv-x="1005" 
d="M866 0h-807v174l539 846h-539v205h807v-178l-530 -842h530v-205zM532 1573h220l-201 -268h-193l-200 268h219l78 -117z" />
    <glyph glyph-name="zcaron" unicode="&#x17e;" horiz-adv-x="909" 
d="M776 0h-704v166l407 524h-424v195h701v-168l-410 -522h430v-195zM489 1278h220l-201 -268h-193l-200 268h219l78 -117z" />
    <glyph glyph-name="longs" unicode="&#x17f;" horiz-adv-x="696" 
d="M377 975v-975h-205v690h-137v195h137v78q0 77 37 127q13 19 44 50.5t54 47.5q64 45 150 45h172v-195h-170q-17 0 -19 -2q-17 -10 -39.5 -29.5t-23.5 -31.5z" />
    <glyph glyph-name="florin" unicode="&#x192;" horiz-adv-x="686" 
d="M-78 -143h170q8 0 12 2q43 26 64 69q2 3 2 11v751h-135v195h135v69q4 80 39 127q13 19 44 51t54 48q64 45 150 45h172v-195h-170q-17 0 -19 -2q-18 -10 -41 -29.5t-24 -31.5v-17v-65h143v-195h-143v-756q0 -78 -35 -129q-13 -19 -45 -51.5t-55 -48.5q-61 -43 -146 -43
h-172v195z" />
    <glyph glyph-name="Scommaaccent" unicode="&#x218;" horiz-adv-x="1169" 
d="M725 -184l-164 -256h-231l196 315zM995 291q0 -73 -32 -117q-20 -30 -70 -79.5t-80 -67.5q-68 -37 -127 -37h-356q-135 0 -260 170q-17 25 -37 63l203 68q41 -57 90 -94q4 -2 14 -2h336l12 2q23 12 57.5 47t34.5 47v121q0 13 -8 22.5t-16 11.5l-533 152
q-75 21 -117.5 84.5t-42.5 138.5v111q0 71 31 117q20 30 70.5 79.5t81.5 67.5q68 37 127 37h303q44 0 84 -15.5t73.5 -44.5t55.5 -53t47 -57q24 -35 41 -72l-207 -59q-47 67 -90 94q-2 2 -12 2h-289l-12 -2q-24 -12 -56 -45t-32 -45v-102q0 -13 7 -23t15 -12l535 -156
q74 -21 116.5 -85t42.5 -138v-129z" />
    <glyph glyph-name="scommaaccent" unicode="&#x219;" horiz-adv-x="960" 
d="M606 -150l-164 -256h-231l197 316zM225 240q12 -14 37.5 -34.5t38.5 -21.5h238q19 0 46 26.5t27 47.5v49q0 27 -26 29l-148.5 11t-187.5 15q-86 6 -139.5 60t-53.5 149v62q0 74 37 125q95 137 238 137h196q80 0 148 -47q35 -25 76 -69.5t57 -82.5l-193 -57q-2 4 -6 8
q-13 15 -37.5 34t-37.5 19h-197q-19 0 -27 -4q-9 -4 -24 -18t-23 -29q-2 -4 -2 -20v-49q0 -6 9 -16t22 -11q24 -3 142 -14t179 -17q90 -10 146.5 -62.5t56.5 -148.5v-57q0 -72 -39 -125q-13 -20 -40.5 -48.5t-51.5 -45.5q-64 -45 -145 -45h-234q-76 0 -147 49q-35 25 -75 69
t-56 82l190 58z" />
    <glyph glyph-name="circumflex" unicode="&#x2c6;" horiz-adv-x="868" 
d="M354 1010h-219l201 268h192l201 -268h-219l-78 106z" />
    <glyph glyph-name="caron" unicode="&#x2c7;" horiz-adv-x="868" 
d="M489 1278h220l-201 -268h-193l-200 268h219l78 -117z" />
    <glyph glyph-name="breve" unicode="&#x2d8;" horiz-adv-x="729" 
d="M432 1221h119q0 -89 -62 -151t-149 -62t-151 62.5t-64 150.5h119q0 -40 28.5 -69.5t67.5 -29.5t65.5 29.5t26.5 69.5z" />
    <glyph glyph-name="dotaccent" unicode="&#x2d9;" horiz-adv-x="442" 
d="M303 1012h-219v219h219v-219z" />
    <glyph glyph-name="ring" unicode="&#x2da;" horiz-adv-x="1007" 
d="M551 1221q0 -89 -62 -151t-149 -62t-151 62.5t-64 150.5q0 85 64.5 147t150.5 62t148.5 -62t62.5 -147zM432 1221q0 37 -26.5 64.5t-65.5 27.5t-67.5 -27.5t-28.5 -64.5q0 -40 28.5 -69.5t67.5 -29.5t65.5 29.5t26.5 69.5z" />
    <glyph glyph-name="ogonek" unicode="&#x2db;" horiz-adv-x="831" 
d="M395 -406l-164 256l199 60l197 -316h-232z" />
    <glyph glyph-name="tilde" unicode="&#x2dc;" horiz-adv-x="946" 
d="M768 1065l-164 -47q-12 30 -39.5 46t-44.5 11l-133 -43q-79 -26 -162.5 18.5t-124.5 147.5l174 43q13 -30 34 -43t38 -8l139 43q81 26 161.5 -18.5t121.5 -149.5z" />
    <glyph glyph-name="hungarumlaut" unicode="&#x2dd;" horiz-adv-x="759" 
d="M727 989l-141 45l188 244h193zM446 989l-141 45l189 244h192z" />
    <glyph glyph-name="pi" unicode="&#x3c0;" horiz-adv-x="1302" 
d="M217 690h-158v195h1078v-195h-162v-516l22 -174h-206l-21 152v538h-348v-690h-205v690z" />
    <glyph glyph-name="afii10023" unicode="&#x401;" horiz-adv-x="1056" 
d="M860 0h-770v1225h770v-205h-555v-309h522v-205h-522v-301h555v-205zM752 1337h-199v211h199v-211zM422 1337h-199v211h199v-211z" />
    <glyph glyph-name="afii10051" unicode="&#x402;" horiz-adv-x="1243" 
d="M618 184h170l13 2q44 27 65 70q2 6 2 10v355l-2 10q-10 18 -28.5 37t-36.5 30q-2 2 -13 2h-141q-19 0 -60.5 -32t-62.5 -58v-610h-215v1020h-274v205h764v-205h-275v-172q72 47 119 47h148q86 0 147 -45q23 -16 53.5 -48t44.5 -52q37 -53 37 -125v-363q0 -76 -37 -129
q-13 -19 -45 -51.5t-55 -48.5q-61 -43 -145 -43h-173v194z" />
    <glyph glyph-name="afii10052" unicode="&#x403;" horiz-adv-x="983" 
d="M90 1225h758v-205h-543v-1020h-215v1225zM559 1339l-188 56l188 243h242z" />
    <glyph glyph-name="afii10053" unicode="&#x404;" 
d="M305 518v-244l2 -10q14 -24 38.5 -46.5t37.5 -22.5h260q6 0 10 2q19 9 49 40t52 64l209 -55q-9 -27 -52 -88q-128 -168 -262 -168h-268q-79 0 -143 45q-22 15 -59.5 53.5t-51.5 58.5q-37 55 -37 125v676q0 70 37 125q14 21 52 59.5t59 53.5q64 45 143 45h268
q130 0 262 -168q30 -43 50 -88l-209 -57q-11 34 -43 62.5t-58 41.5l-8 2h-260q-13 0 -37.5 -22t-38.5 -46q-2 -4 -2 -10v-225h365v-203h-365z" />
    <glyph glyph-name="afii10054" unicode="&#x405;" horiz-adv-x="1169" 
d="M995 291q0 -73 -32 -117q-20 -30 -70 -79.5t-80 -67.5q-68 -37 -127 -37h-356q-135 0 -260 170q-17 25 -37 63l203 68q41 -57 90 -94q4 -2 14 -2h336l12 2q23 12 57.5 47t34.5 47v121q0 13 -8 22.5t-16 11.5l-533 152q-75 21 -117.5 84.5t-42.5 138.5v111q0 71 31 117
q20 30 70.5 79.5t81.5 67.5q68 37 127 37h303q44 0 84 -15.5t73.5 -44.5t55.5 -53t47 -57q24 -35 41 -72l-207 -59q-47 67 -90 94q-2 2 -12 2h-289l-12 -2q-24 -12 -56 -45t-32 -45v-102q0 -13 7 -23t15 -12l535 -156q74 -21 116.5 -85t42.5 -138v-129z" />
    <glyph glyph-name="afii10055" unicode="&#x406;" horiz-adv-x="509" 
d="M305 0h-215v1225h215v-1225z" />
    <glyph glyph-name="afii10056" unicode="&#x407;" horiz-adv-x="509" 
d="M457 1337h-199v211h199v-211zM127 1337h-199v211h199v-211zM305 0h-215v1225h215v-1225z" />
    <glyph glyph-name="afii10057" unicode="&#x408;" horiz-adv-x="966" 
d="M756 289q0 -65 -35 -117q-22 -31 -69.5 -79.5t-76.5 -65.5q-65 -37 -126 -37h-152q-136 0 -262 170q-11 15 -41 78l207 55q14 -32 38 -59t44 -37q1 -1 3 -1t4.5 -0.5t5.5 -0.5h3h139q10 -1 56.5 43t46.5 53v934h215v-936z" />
    <glyph glyph-name="afii10058" unicode="&#x409;" horiz-adv-x="1849" 
d="M1634 555q35 -51 35 -123v-153q0 -72 -35 -123q-11 -19 -48.5 -58t-59.5 -53q-61 -45 -144 -45h-579v1018h-416v-729q0 -65 -35 -117q-22 -31 -69 -79.5t-76 -65.5q-65 -37 -127 -37h-150v205h140q10 -1 56 43t46 53v934h846v-514h364q77 0 144 -45q24 -18 61.5 -56
t46.5 -55zM1452 270q2 7 2 15v147l-2 10q-14 25 -37.5 47.5t-36.5 22.5h-360v-309h362q14 0 38 22t34 45z" />
    <glyph glyph-name="afii10059" unicode="&#x40a;" horiz-adv-x="1798" 
d="M1583 555q35 -51 35 -123v-153q0 -72 -35 -123q-11 -19 -48.5 -58t-59.5 -53q-61 -45 -144 -45h-579v506h-447v-506h-215v1225h215v-514h447v514h215v-514h364q77 0 144 -45q24 -18 61.5 -56t46.5 -55zM1401 268q2 7 2 15v147l-2 10q-14 25 -37.5 47.5t-36.5 22.5h-360
v-309h362q14 0 38 22t34 45z" />
    <glyph glyph-name="afii10060" unicode="&#x40b;" horiz-adv-x="1243" 
d="M868 0v621l-2 10q-10 18 -28.5 37t-36.5 30q-2 2 -13 2h-141q-19 0 -60.5 -32t-62.5 -58v-610h-215v1020h-274v205h764v-205h-275v-172q72 47 119 47h148q86 0 147 -45q23 -16 53.5 -48t44.5 -52q37 -53 37 -125v-625h-205z" />
    <glyph glyph-name="afii10061" unicode="&#x40c;" horiz-adv-x="1069" 
d="M1016 0h-264l-398 512h-49v-512h-215v1225h215v-510h47q71 85 200 256.5t198 253.5h264l-475 -611q76 -91 238 -307.5t239 -306.5zM602 1339l-188 56l188 243h242z" />
    <glyph glyph-name="afii10062" unicode="&#x40e;" horiz-adv-x="1064" 
d="M567 1561h119q0 -89 -62 -151t-149 -62t-151 62.5t-64 150.5h119q0 -40 28.5 -69.5t67.5 -29.5t65.5 29.5t26.5 69.5zM971 1225l-506 -1225h-209l129 326h-43l-362 899h229l264 -674l277 674h221z" />
    <glyph glyph-name="afii10145" unicode="&#x40f;" horiz-adv-x="1144" 
d="M612 -193h-200v193h-322v1225h215v-1020h420v1020h215v-1225h-328v-193z" />
    <glyph glyph-name="afii10017" unicode="&#x410;" horiz-adv-x="1124" 
d="M1055 0h-230l-90 260h-465l-90 -260h-229l428 1225h250zM668 465l-164 483l-166 -483h330z" />
    <glyph glyph-name="afii10018" unicode="&#x411;" 
d="M922 555q34 -49 34 -123v-153q0 -74 -34 -123q-11 -18 -49 -57.5t-60 -53.5q-61 -45 -143 -45h-580v1225h752v-205h-537v-309h365q76 0 143 -45q25 -18 62.5 -56t46.5 -55zM739 272q2 7 2 15v145l-2 10q-14 25 -37 47.5t-36 22.5h-361v-307h363q14 0 37.5 22t33.5 45z
" />
    <glyph glyph-name="afii10019" unicode="&#x412;" 
d="M956 279q0 -73 -34 -123q-14 -21 -51 -58.5t-58 -52.5q-64 -45 -147 -45h-576v1225h576q81 0 147 -47q21 -15 58 -52.5t51 -58.5q34 -49 34 -127v-152q0 -60 -19.5 -99t-59.5 -79q40 -40 59.5 -78.5t19.5 -97.5v-155zM739 778q2 5 2 15v147l-2 10q-14 25 -38 48.5
t-37 23.5h-359v-311h361q14 0 38.5 22t34.5 45zM739 272q2 7 2 15v145l-2 10q-14 25 -38 47.5t-37 22.5h-359v-307h361q14 0 38.5 22t34.5 45z" />
    <glyph glyph-name="afii10020" unicode="&#x413;" horiz-adv-x="983" 
d="M90 1225h758v-205h-543v-1020h-215v1225z" />
    <glyph glyph-name="afii10021" unicode="&#x414;" horiz-adv-x="1212" 
d="M139 299l107 926h735v-1022h98l-41 -369h-215l19 166h-662v-166h-211v369h68q10 -1 56 43t46 53zM440 1020l-88 -739q-4 -33 -39 -78h455v817h-328z" />
    <glyph glyph-name="afii10022" unicode="&#x415;" horiz-adv-x="1056" 
d="M860 0h-770v1225h770v-205h-555v-309h522v-205h-522v-301h555v-205z" />
    <glyph glyph-name="afii10024" unicode="&#x416;" horiz-adv-x="1673" 
d="M1599 0h-264l-397 512h-49v-512h-215v512h-49l-398 -512h-264q77 90 239 306.5t238 307.5l-475 611h264q69 -82 198 -253.5t200 -256.5h47v510h215v-510h47q71 85 199.5 256.5t197.5 253.5h264l-475 -611q76 -91 238 -307.5t239 -306.5z" />
    <glyph glyph-name="afii10025" unicode="&#x417;" horiz-adv-x="1077" 
d="M682 274v166q0 7 -2 11q-12 23 -36 45t-38 22h-2h-287v203h287h2q14 0 38 22t36 45l2 11v147l-2 10q-14 24 -38.5 46t-37.5 22h-260q-4 0 -8 -2q-26 -13 -57.5 -41.5t-42.5 -62.5l-209 57q22 49 49 88q132 168 262 168h268q80 0 144 -45q21 -15 58.5 -53.5t51.5 -59.5
q37 -55 37 -125v-153q0 -57 -20.5 -95t-61.5 -79q40 -40 61 -79.5t21 -97.5v-172q0 -70 -37 -125q-14 -21 -51.5 -59t-58.5 -53q-64 -45 -144 -45h-268q-134 0 -262 168q-41 59 -51 88l208 55q22 -33 52 -64t49 -40q4 -2 10 -2h260q13 0 37.5 22.5t38.5 46.5q2 4 2 10z" />
    <glyph glyph-name="afii10026" unicode="&#x418;" horiz-adv-x="1161" 
d="M317 0h-227v1225h215v-824l420 824h231v-1225h-215v813z" />
    <glyph glyph-name="afii10027" unicode="&#x419;" horiz-adv-x="1161" 
d="M317 0h-227v1225h215v-824l420 824h231v-1225h-215v813zM625 1561h118q0 -89 -62 -151t-149 -62t-151 62.5t-64 150.5h119q0 -40 28.5 -69.5t67.5 -29.5t66 29.5t27 69.5z" />
    <glyph glyph-name="afii10028" unicode="&#x41a;" horiz-adv-x="1089" 
d="M1016 0h-264l-398 512h-49v-512h-215v1225h215v-510h47q71 85 200 256.5t198 253.5h264l-475 -611q76 -91 238 -307.5t239 -306.5z" />
    <glyph glyph-name="afii10029" unicode="&#x41b;" horiz-adv-x="1243" 
d="M408 289q0 -65 -35 -117q-22 -31 -69.5 -79.5t-76.5 -65.5q-65 -37 -127 -37h-149v205h139q10 -1 56.5 43t46.5 53v934h845v-1225h-215v1018h-415v-729z" />
    <glyph glyph-name="afii10030" unicode="&#x41c;" horiz-adv-x="1353" 
d="M1149 0h-215v838l-244 -537h-141l-244 535v-836h-215v1225h246l287 -604l282 604h244v-1225z" />
    <glyph glyph-name="afii10031" unicode="&#x41d;" horiz-adv-x="1171" 
d="M967 0h-215v506h-447v-506h-215v1225h215v-514h447v514h215v-1225z" />
    <glyph glyph-name="afii10032" unicode="&#x41e;" horiz-adv-x="1206" 
d="M1022 291q0 -68 -33 -117q-26 -33 -73 -81.5t-76 -65.5q-61 -37 -127 -37h-312q-66 0 -127 37q-30 17 -78.5 67t-70.5 80q-33 49 -33 117v641q0 68 33 117q22 30 70.5 80t78.5 67q61 37 127 37h312q66 0 127 -37q29 -17 76 -65.5t73 -81.5q33 -49 33 -117v-641zM307 926
v-633q0 -6 2 -8q18 -27 45 -53t45 -35q4 -2 11 -2h295q6 0 10 2q18 9 45 35t45 53l2 8v633q0 8 -2 10q-18 27 -45 54t-45 36q-4 2 -10 2h-295q-9 0 -11 -2q-18 -9 -45 -36t-45 -54z" />
    <glyph glyph-name="afii10033" unicode="&#x41f;" horiz-adv-x="1144" 
d="M940 0h-215v1020h-420v-1020h-215v1225h850v-1225z" />
    <glyph glyph-name="afii10034" unicode="&#x420;" horiz-adv-x="1099" 
d="M958 762q0 -72 -36 -125q-13 -20 -51 -57t-60 -52q-62 -45 -145 -45h-361v-483h-215v1225h576q81 0 145 -45q21 -15 59 -53.5t52 -59.5q36 -53 36 -125v-180zM743 764v176q0 10 -2 14q-11 20 -31 42.5t-34 23.5h-10h-361v-332h361q13 0 38 23t37 45q2 4 2 8z" />
    <glyph glyph-name="afii10035" unicode="&#x421;" horiz-adv-x="1132" 
d="M958 238q-18 -43 -43 -78q-125 -170 -260 -170h-256q-66 0 -127 37q-31 18 -80 66.5t-69 78.5q-33 49 -33 117v645q0 66 33 115q22 30 70.5 80t78.5 67q68 37 127 37h256q131 0 260 -170q17 -25 43 -72l-208 -59q-62 76 -93 94q-2 2 -8 2h-241l-9 -2q-21 -11 -49 -38.5
t-43 -51.5q-2 -4 -2 -23v-622q0 -17 33.5 -48.5t60.5 -45.5q2 -2 15 -2h233q6 0 10 2q19 9 42.5 33t36.5 44l14 19z" />
    <glyph glyph-name="afii10036" unicode="&#x422;" horiz-adv-x="1021" 
d="M893 1020h-332v-1020h-215v1020h-332v205h879v-205z" />
    <glyph glyph-name="afii10037" unicode="&#x423;" horiz-adv-x="1075" 
d="M971 1225l-506 -1225h-209l129 326h-43l-362 899h229l264 -674l277 674h221z" />
    <glyph glyph-name="afii10038" unicode="&#x424;" horiz-adv-x="1267" 
d="M645 -170h-119v160h-125q-66 0 -127 37q-30 17 -78.5 67t-70.5 80q-33 49 -33 117v641q0 68 33 117q22 30 70.5 80t78.5 67q61 37 127 37h125v141h119v-141h129q66 0 127 -37q29 -17 77 -65.5t73 -81.5q32 -47 32 -117v-641q0 -70 -32 -117q-25 -33 -73 -81.5t-77 -65.5
q-61 -37 -127 -37h-129v-160zM766 1028h-121v-833h121q6 0 10 2q18 9 45 35t45 53l2 8v633q0 8 -2 10q-18 27 -45 54t-45 36q-4 2 -10 2zM307 926v-633q0 -6 2 -8q18 -27 45 -53t45 -35q4 -2 11 -2h116v833h-116q-9 0 -11 -2q-18 -9 -45 -36t-45 -54z" />
    <glyph glyph-name="afii10039" unicode="&#x425;" horiz-adv-x="1089" 
d="M981 1225l-371 -598l391 -627h-239l-270 436l-269 -436h-239l389 627l-369 598h238l250 -408l251 408h238z" />
    <glyph glyph-name="afii10040" unicode="&#x426;" horiz-adv-x="1171" 
d="M940 203h98l-43 -365h-215l21 162h-711v1225h215v-1022h420v1022h215v-1022z" />
    <glyph glyph-name="afii10041" unicode="&#x427;" horiz-adv-x="1126" 
d="M922 0h-215v506h-353q-66 0 -127 37q-30 17 -78.5 67t-70.5 80q-33 49 -33 117v418h215v-416q0 -6 2 -8q18 -27 45 -53t45 -35l4 -2h351v514h215v-1225z" />
    <glyph glyph-name="afii10042" unicode="&#x428;" horiz-adv-x="1353" 
d="M90 1225h215v-1022h209v1022h213v-1022h207v1022h215v-1225h-1059v1225z" />
    <glyph glyph-name="afii10043" unicode="&#x429;" horiz-adv-x="1380" 
d="M90 1225h215v-1022h209v1022h213v-1022h207v1022h215v-1022h98l-43 -365h-215l21 162h-920v1225z" />
    <glyph glyph-name="afii10044" unicode="&#x42a;" horiz-adv-x="1198" 
d="M367 1225v-514h364q76 0 143 -45q25 -18 62.5 -56t46.5 -55q35 -51 35 -123v-153q0 -72 -35 -123q-11 -18 -49 -57.5t-60 -53.5q-61 -45 -143 -45h-579v1020h-189v205h404zM801 272q2 7 2 15v145l-2 10q-14 25 -37.5 47.5t-36.5 22.5h-360v-307h362q14 0 38 22t34 45z
" />
    <glyph glyph-name="afii10045" unicode="&#x42b;" horiz-adv-x="1579" 
d="M922 555q34 -49 34 -123v-153q0 -74 -34 -123q-11 -18 -49 -57.5t-60 -53.5q-61 -45 -143 -45h-580v1225h215v-514h365q76 0 143 -45q25 -18 62.5 -56t46.5 -55zM739 270q2 7 2 15v147l-2 10q-14 25 -37 47.5t-36 22.5h-361v-309h363q14 0 37.5 22t33.5 45zM1374 0h-215
v1225h215v-1225z" />
    <glyph glyph-name="afii10046" unicode="&#x42c;" 
d="M922 555q34 -49 34 -123v-153q0 -74 -34 -123q-11 -18 -49 -57.5t-60 -53.5q-61 -45 -143 -45h-580v1225h215v-514h365q76 0 143 -45q25 -18 62.5 -56t46.5 -55zM739 270q2 7 2 15v147l-2 10q-14 25 -37 47.5t-36 22.5h-361v-309h363q14 0 37.5 22t33.5 45z" />
    <glyph glyph-name="afii10047" unicode="&#x42d;" horiz-adv-x="1077" 
d="M682 274v244h-365v203h365v225l-2 10q-14 24 -38.5 46t-37.5 22h-260l-8 -2q-26 -13 -57.5 -41.5t-42.5 -62.5l-209 57q22 49 49 88q132 168 262 168h268q80 0 144 -45q21 -15 58.5 -53.5t51.5 -59.5q37 -55 37 -125v-676q0 -70 -37 -125q-14 -21 -51.5 -59t-58.5 -53
q-64 -45 -144 -45h-268q-134 0 -262 168q-41 59 -51 88l208 55q22 -33 52 -64t49 -40q4 -2 10 -2h260q13 0 37.5 22.5t38.5 46.5q2 4 2 10z" />
    <glyph glyph-name="afii10048" unicode="&#x42e;" horiz-adv-x="1607" 
d="M1423 291q0 -70 -32 -117q-25 -33 -73 -81.5t-77 -65.5q-61 -37 -127 -37h-311q-66 0 -127 37q-30 17 -79.5 67t-70.5 80q-32 47 -32 117v215h-189v-506h-215v1225h215v-514h189v221q0 70 32 117q21 30 70.5 80t79.5 67q61 37 127 37h311q66 0 127 -37q29 -17 77 -65.5
t73 -81.5q32 -47 32 -117v-641zM709 926v-633q0 -6 2 -8q18 -27 45 -53t45 -35q4 -2 10 -2h295q6 0 10 2q18 9 45 35t45 53l2 8v633q0 8 -2 10q-18 27 -45 54t-45 36q-4 2 -10 2h-295q-8 0 -10 -2q-18 -9 -45 -36t-45 -54z" />
    <glyph glyph-name="afii10049" unicode="&#x42f;" horiz-adv-x="1132" 
d="M59 762v180q0 70 37 125q14 21 52 59.5t59 53.5q64 45 145 45h576v-1225h-215v483h-234l-248 -483h-235l264 500q-28 9 -53 28q-22 15 -60 52t-51 57q-37 55 -37 125zM274 940v-176l2 -8q12 -22 37.5 -45t38.5 -23h361v332h-371q-14 -1 -35 -23.5t-31 -42.5z" />
    <glyph glyph-name="afii10065" unicode="&#x430;" horiz-adv-x="980" 
d="M598 555v70q0 8 -2 10q-22 36 -66 61q-8 4 -12 4h-180q-16 0 -42.5 -22.5t-39.5 -40.5l-193 57q14 33 59 82t75 70q71 49 147 49h176q86 0 150 -45q25 -18 56 -48t42 -48q35 -47 35 -127v-447l20 -180h-202l-11 41q-70 -51 -127 -51h-168q-83 0 -147 45
q-23 17 -53.5 47.5t-42.5 48.5q-37 51 -37 125v37q0 74 37 125q12 17 42 45.5t54 46.5q64 45 147 45h283zM598 266v107h-281q-8 0 -14 -4q-36 -22 -61 -66q-2 -4 -2 -6v-39l2 -6q26 -46 63 -64q8 -4 12 -4h160q16 0 61 32.5t60 49.5z" />
    <glyph glyph-name="afii10066" unicode="&#x431;" horiz-adv-x="997" 
d="M395 895h158q85 0 149 -45q24 -18 55.5 -49t43.5 -49q35 -47 35 -125v-369q0 -78 -35 -125q-12 -19 -43.5 -51t-55.5 -49q-61 -43 -149 -43h-199q-86 0 -147 43q-24 18 -56.5 50t-44.5 50q-34 46 -34 125v690q0 70 37 125q14 20 52 59t60 54q61 45 141 45h269
q1 0 -14 -48.5t-29.5 -96.5t-12.5 -48h-219q-9 0 -27 -15t-32 -31l-14 -15q-7 -7 -7 -23v-127q8 8 21.5 19t45 30t52.5 19zM276 606v-358q0 -11 22.5 -30t45.5 -32q4 -2 12 -2h195q4 0 12 4q18 10 42.5 29.5t25.5 30.5v373q0 6 -2 12q-9 16 -29.5 35.5t-38.5 29.5
q-4 2 -10 2h-150q-25 0 -32 -6q-75 -53 -93 -88z" />
    <glyph glyph-name="afii10067" unicode="&#x432;" horiz-adv-x="968" 
d="M782 483q-12 -18 -30 -39q14 -14 32 -41q35 -55 35 -122v-35q-3 -70 -37 -119q-13 -20 -38.5 -48t-47.5 -44q-56 -43 -141 -43h-467v899h467q89 -4 141 -47q22 -16 49 -44.5t39 -45.5q35 -52 35 -125v-29q-3 -70 -37 -117zM551 700h-262v-163h264h4h2q44 35 59 65v31
q-9 18 -27 38t-32 27q-4 2 -8 2zM618 246v39q-9 18 -26.5 36.5t-32.5 26.5q-4 2 -10 2h-260v-170h268q46 32 61 66z" />
    <glyph glyph-name="afii10068" unicode="&#x433;" horiz-adv-x="815" 
d="M88 885h614v-195h-407v-690h-207v885z" />
    <glyph glyph-name="afii10069" unicode="&#x434;" horiz-adv-x="1077" 
d="M877 190h104l-43 -348h-195l17 158h-555v-158h-197v348q72 0 86 7q12 6 30 25t28 38q4 8 6 16l84 609h635v-695zM356 268q-4 -26 -39 -78h359v504h-258z" />
    <glyph glyph-name="afii10070" unicode="&#x435;" horiz-adv-x="985" 
d="M827 344h-555v-84l2 -10q14 -23 39.5 -44.5t40.5 -21.5h199q13 0 38 19.5t38 34.5l6 8l190 -58q-14 -34 -58 -82.5t-73 -68.5q-68 -47 -147 -47h-193q-88 0 -149 43q-23 17 -55 48.5t-44 49.5q-38 52 -38 127v369q0 73 38 125q12 18 44 49.5t55 48.5q64 45 149 45h189
q85 0 149 -45q24 -18 55.5 -49t43.5 -49q36 -48 36 -125v-283zM623 526v97q0 10 -2 12q-9 15 -29 34t-39 29q-4 2 -12 2h-187q-15 0 -41 -21t-39 -44l-2 -12v-97h351z" />
    <glyph glyph-name="afii10072" unicode="&#x436;" horiz-adv-x="1566" 
d="M1511 0h-274l-326 362h-65v-362h-205v362h-66l-325 -362h-275l422 457l-393 428h268l301 -330h68v330h205v-330h67l301 330h269l-393 -428z" />
    <glyph glyph-name="afii10073" unicode="&#x437;" horiz-adv-x="942" 
d="M793 596q-3 -64 -37 -113q-9 -15 -37 -39q29 -29 37 -41q37 -55 37 -122v-23q0 -74 -39 -127q-12 -18 -44 -49.5t-55 -48.5q-61 -43 -149 -43h-193q-79 0 -147 47q-29 20 -73 68.5t-58 82.5l190 58q4 -6 6 -8q13 -15 38 -34.5t38 -19.5h199q15 0 40.5 21.5t39.5 44.5
q2 4 2 10v27q-21 40 -56 61q-2 2 -10 2h-207v185h217q43 33 56 61v25l-2 10q-13 23 -39 44t-41 21h-199q-13 0 -38.5 -19.5t-37.5 -33.5l-6 -8l-190 57q14 34 58 83t73 69q68 47 147 47h193q88 0 149 -43q23 -17 55 -48.5t44 -49.5q39 -53 39 -127v-27z" />
    <glyph glyph-name="afii10074" unicode="&#x438;" horiz-adv-x="1040" 
d="M666 885h204v-885h-204v545l-379 -545h-199v885h205v-537z" />
    <glyph glyph-name="afii10075" unicode="&#x439;" horiz-adv-x="1040" 
d="M666 885h204v-885h-204v545l-379 -545h-199v885h205v-537zM580 1221h118q0 -89 -62 -151t-149 -62t-151 62.5t-64 150.5h119q0 -40 28.5 -69.5t67.5 -29.5t66 29.5t27 69.5z" />
    <glyph glyph-name="afii10076" unicode="&#x43a;" horiz-adv-x="1013" 
d="M958 0h-274l-326 362h-65v-362h-205v885h205v-330h67q90 99 302 330h268l-393 -428z" />
    <glyph glyph-name="afii10077" unicode="&#x43b;" horiz-adv-x="1077" 
d="M-18 172h90l12 2q46 28 66 70q2 6 2 10v631h755v-885h-207v690h-342v-440q0 -77 -36 -129q-13 -18 -46 -51.5t-57 -49.5q-61 -43 -145 -43h-92v195z" />
    <glyph glyph-name="afii10078" unicode="&#x43c;" horiz-adv-x="1101" 
d="M719 885h213v-885h-205v492q-29 -53 -82 -158.5t-67 -132.5h-134l-151 299v-500h-205v885h217l207 -398q34 66 105 202t102 196z" />
    <glyph glyph-name="afii10079" unicode="&#x43d;" horiz-adv-x="1013" 
d="M637 885h207v-885h-207v367h-342v-367h-207v885h207v-324h342v324z" />
    <glyph glyph-name="afii10080" unicode="&#x43e;" horiz-adv-x="991" 
d="M829 258q0 -79 -34 -125q-12 -19 -43.5 -51t-55.5 -49q-61 -43 -149 -43h-193q-86 0 -147 43q-24 18 -56.5 50t-44.5 50q-34 46 -34 125v369q0 79 34 125q11 18 43.5 48.5t57.5 49.5q64 45 147 45h193q85 0 149 -45q24 -18 55.5 -49t43.5 -49q34 -46 34 -125v-369z
M276 621v-373q0 -11 22.5 -30t45.5 -32q4 -2 12 -2h189q4 0 12 4q18 10 42.5 29.5t25.5 30.5v373q0 6 -2 12q-9 16 -29.5 35.5t-38.5 29.5q-4 2 -10 2h-189q-6 0 -10 -2q-45 -25 -67 -65z" />
    <glyph glyph-name="afii10081" unicode="&#x43f;" horiz-adv-x="1013" 
d="M88 885h756v-885h-207v690h-342v-690h-207v885z" />
    <glyph glyph-name="afii10082" unicode="&#x440;" horiz-adv-x="1005" 
d="M844 260q0 -76 -37 -127q-14 -20 -44.5 -52t-53.5 -48q-61 -43 -148 -43h-149q-55 0 -121 47v-371h-205v1036l-18 183h202l9 -45q70 55 133 55h149q87 0 148 -45q23 -17 54.5 -49t43.5 -51q37 -53 37 -127v-363zM639 264v354l-2 13q-21 38 -66 65q-8 4 -12 4h-141
q-16 0 -60.5 -33t-66.5 -59v-334q22 -26 65.5 -58t61.5 -32h141q8 0 12 2q42 26 66 68q2 4 2 10z" />
    <glyph glyph-name="afii10083" unicode="&#x441;" horiz-adv-x="960" 
d="M276 260q1 -6 5 -12q19 -34 65 -60q8 -4 12 -4h201q13 0 38 19.5t38 34.5q2 2 6 8l190 -58q-14 -34 -58 -82.5t-73 -68.5q-68 -47 -147 -47h-197q-88 0 -149 43q-23 17 -54.5 49t-43.5 51q-37 50 -37 125v369q0 75 37 125q12 19 43.5 51t54.5 49q61 43 149 43h195
q79 0 147 -47q35 -25 75 -69.5t56 -82.5l-190 -57l-6 8q-12 14 -37.5 33.5t-38.5 19.5h-199l-12 -4q-47 -26 -65 -59l-5 -12v-365z" />
    <glyph glyph-name="afii10084" unicode="&#x442;" horiz-adv-x="886" 
d="M774 690h-274v-690h-205v690h-275v195h754v-195z" />
    <glyph glyph-name="afii10085" unicode="&#x443;" horiz-adv-x="874" 
d="M870 885l-434 -1217h-207l123 332h-18l-326 885h230l206 -600l209 600h217z" />
    <glyph glyph-name="afii10086" unicode="&#x444;" horiz-adv-x="1024" 
d="M526 -334h-118v324h-54q-86 0 -147 43q-24 18 -56.5 50t-44.5 50q-34 46 -34 125v369q0 79 34 125q11 18 43.5 48.5t57.5 49.5q64 45 147 45h54v332h118v-332h54q85 0 149 -45q24 -18 55 -49t43 -49q35 -47 35 -125v-369q0 -78 -35 -125q-12 -19 -43.5 -51t-54.5 -49
q-61 -43 -149 -43h-54v-324zM276 621v-373q0 -11 22.5 -30t45.5 -32q4 -2 12 -2h52v516h-52q-6 0 -10 -2q-45 -25 -67 -65zM578 700h-52v-516h52q4 0 12 4q18 10 42 29.5t25 30.5v373l-2 12q-25 41 -67 65q-4 2 -10 2z" />
    <glyph glyph-name="afii10087" unicode="&#x445;" horiz-adv-x="919" 
d="M846 0h-244l-186 279l-187 -279h-245l309 453l-299 432h250l172 -264l166 264h249l-294 -432z" />
    <glyph glyph-name="afii10088" unicode="&#x446;" horiz-adv-x="1044" 
d="M844 190h104l-43 -348h-194l16 158h-639v885h205v-690h346v690h205v-695z" />
    <glyph glyph-name="afii10089" unicode="&#x447;" horiz-adv-x="970" 
d="M252 885v-264l2 -11q23 -47 65 -73q5 -2 9 -2h266v350h205v-885h-205v344h-268q-86 0 -144 43q-23 16 -53.5 48t-44.5 52q-37 53 -37 129v269h205z" />
    <glyph glyph-name="afii10090" unicode="&#x448;" horiz-adv-x="1191" 
d="M1022 885v-885h-932v885h201v-695h162v695h200v-695h168v695h201z" />
    <glyph glyph-name="afii10091" unicode="&#x449;" horiz-adv-x="1224" 
d="M1024 190h104l-43 -348h-194l16 158h-817v885h201v-695h162v695h200v-695h168v695h201v-699z" />
    <glyph glyph-name="afii10092" unicode="&#x44a;" horiz-adv-x="1056" 
d="M344 885v-326h283q83 0 147 -45q23 -17 53.5 -47.5t42.5 -48.5q37 -51 37 -125v-37q0 -74 -37 -125q-12 -18 -42.5 -48.5t-53.5 -47.5q-64 -45 -147 -45h-488v702h-157v193h362zM344 367v-183h281l12 4q41 25 63 64q2 4 2 6v33l-2 6q-24 42 -61 65q-5 5 -14 5h-281z" />
    <glyph glyph-name="afii10093" unicode="&#x44b;" horiz-adv-x="1368" 
d="M293 885v-326h282q84 0 148 -45q23 -17 53.5 -47.5t42.5 -48.5q37 -51 37 -125v-37q0 -74 -37 -125q-12 -18 -42.5 -48.5t-53.5 -47.5q-64 -45 -148 -45h-487v895h205zM293 367v-183h280l13 4q41 25 63 64q2 4 2 6v33l-2 6q-24 42 -61 65q-5 5 -15 5h-280zM1198 0h-205
v885h205v-885z" />
    <glyph glyph-name="afii10094" unicode="&#x44c;" horiz-adv-x="1005" 
d="M293 885v-326h282q84 0 148 -45q23 -17 53.5 -47.5t42.5 -48.5q37 -51 37 -125v-37q0 -74 -37 -125q-12 -18 -42.5 -48.5t-53.5 -47.5q-64 -45 -148 -45h-487v895h205zM293 367v-183h280l13 4q41 25 63 64q2 4 2 6v33l-2 6q-24 42 -61 65q-5 5 -15 5h-280z" />
    <glyph glyph-name="afii10095" unicode="&#x44d;" horiz-adv-x="970" 
d="M801 623v-365q0 -74 -39 -127q-12 -18 -43.5 -49.5t-54.5 -48.5q-61 -43 -150 -43h-192q-80 0 -148 47q-29 20 -73 68.5t-58 82.5l190 58q5 -6 7 -8q13 -15 37.5 -34.5t37.5 -19.5h201q15 0 39.5 21t38.5 45q2 4 2 10v90h-272v185h272v86l-2 10q-14 23 -38.5 44t-39.5 21
h-201q-13 0 -37.5 -19t-37.5 -34l-7 -8l-190 57q14 34 58 83t73 69q68 47 148 47h192q89 0 150 -43q23 -17 54.5 -48.5t43.5 -49.5q39 -53 39 -127z" />
    <glyph glyph-name="afii10096" unicode="&#x44e;" horiz-adv-x="1361" 
d="M1200 258q0 -78 -35 -125q-12 -19 -43.5 -51t-54.5 -49q-61 -43 -149 -43h-193q-86 0 -147 43q-24 18 -56.5 50t-44.5 50q-35 47 -35 125v109h-149v-367h-205v885h205v-324h149v66q0 78 35 125q11 18 43.5 48.5t57.5 49.5q64 45 147 45h193q85 0 149 -45q24 -18 55 -49
t43 -49q35 -47 35 -125v-369zM647 621v-373q0 -11 22.5 -30t45.5 -32q4 -2 12 -2h188q5 0 13 4q18 10 42 29.5t25 30.5v373l-2 12q-25 41 -67 65q-4 2 -11 2h-188q-6 0 -10 -2q-46 -26 -68 -65z" />
    <glyph glyph-name="afii10097" unicode="&#x44f;" horiz-adv-x="978" 
d="M-12 0l243 365q-11 2 -38 20q-24 18 -50 46t-37 46q-34 50 -34 123v35q3 68 34 117q11 20 39 50t50 44q65 45 141 45h473v-891h-203v342h-151q-35 -54 -112.5 -171.5t-111.5 -170.5h-243zM272 637v-45q9 -18 27 -37t33 -27h274v172h-272q-45 -27 -62 -63z" />
    <glyph glyph-name="afii10071" unicode="&#x451;" horiz-adv-x="985" 
d="M827 344h-555v-84l2 -10q14 -23 39.5 -44.5t40.5 -21.5h199q13 0 38 19.5t38 34.5l6 8l190 -58q-14 -34 -58 -82.5t-73 -68.5q-68 -47 -147 -47h-193q-88 0 -149 43q-23 17 -55 48.5t-44 49.5q-38 52 -38 127v369q0 73 38 125q12 18 44 49.5t55 48.5q64 45 149 45h189
q85 0 149 -45q24 -18 55.5 -49t43.5 -49q36 -48 36 -125v-283zM623 526v97q0 10 -2 12q-9 15 -29 34t-39 29q-4 2 -12 2h-187q-15 0 -41 -21t-39 -44l-2 -12v-97h351zM707 1014h-199v211h199v-211zM377 1014h-199v211h199v-211z" />
    <glyph glyph-name="afii10099" unicode="&#x452;" horiz-adv-x="997" 
d="M539 967h-263v-121q69 49 121 49h148q86 0 147 -45q23 -16 54.5 -48.5t44.5 -51.5q36 -52 36 -125v-691q0 -77 -36 -129q-13 -19 -45.5 -51.5t-55.5 -48.5q-61 -43 -145 -43h-172v195h170l12 2q46 28 66 69q2 7 2 11v682l-2 10q-23 41 -66 67q-2 2 -12 2h-142
q-19 0 -61.5 -33t-63.5 -59v-608h-204v967h-97v180h97v78h204v-78h263v-180z" />
    <glyph glyph-name="afii10100" unicode="&#x453;" horiz-adv-x="851" 
d="M88 885h614v-195h-407v-690h-207v885zM494 999l-189 56l189 243h241z" />
    <glyph glyph-name="afii10101" unicode="&#x454;" horiz-adv-x="974" 
d="M72 623q0 74 39 127q12 18 43.5 49.5t54.5 48.5q61 43 149 43h193q79 0 147 -47q29 -20 73 -69t58 -83l-190 -57q-4 6 -6 8q-12 14 -37.5 33.5t-38.5 19.5h-201q-15 0 -39 -20.5t-38 -44.5q-3 -4 -3 -10v-86h273v-185h-273v-90l3 -10q14 -24 38 -45t39 -21h201
q13 0 38 19.5t38 34.5l6 8l190 -58q-14 -34 -58 -82.5t-73 -68.5q-68 -47 -147 -47h-193q-88 0 -149 43q-23 17 -54.5 48.5t-43.5 49.5q-39 53 -39 127v365z" />
    <glyph glyph-name="afii10102" unicode="&#x455;" horiz-adv-x="960" 
d="M225 240q12 -14 37.5 -34.5t38.5 -21.5h238q19 0 46 26.5t27 47.5v49q0 27 -26 29l-148.5 11t-187.5 15q-86 6 -139.5 60t-53.5 149v62q0 74 37 125q95 137 238 137h196q80 0 148 -47q35 -25 76 -69.5t57 -82.5l-193 -57q-2 4 -6 8q-13 15 -37.5 34t-37.5 19h-197
q-19 0 -27 -4q-9 -4 -24 -18t-23 -29q-2 -4 -2 -20v-49q0 -6 9 -16t22 -11q24 -3 142 -14t179 -17q90 -10 146.5 -62.5t56.5 -148.5v-57q0 -72 -39 -125q-13 -20 -40.5 -48.5t-51.5 -45.5q-64 -45 -145 -45h-234q-76 0 -147 49q-35 25 -75 69t-56 82l190 58z" />
    <glyph glyph-name="afii10103" unicode="&#x456;" horiz-adv-x="471" 
d="M301 1010h-219v219h219v-219zM295 0h-205v885h205v-885z" />
    <glyph glyph-name="afii10104" unicode="&#x457;" horiz-adv-x="473" 
d="M453 1014h-199v211h199v-211zM123 1014h-199v211h199v-211zM295 -2h-205v883h205v-883z" />
    <glyph glyph-name="afii10105" unicode="&#x458;" horiz-adv-x="503" 
d="M334 1010h-219v219h219v-219zM39 -145h-166v-193h172q84 0 145 43q23 16 55.5 48.5t45.5 51.5q37 53 37 129v951h-205v-946l-2 -11q-19 -40 -70 -71q-4 -2 -12 -2z" />
    <glyph glyph-name="afii10106" unicode="&#x459;" horiz-adv-x="1619" 
d="M907 885v-326h283q83 0 147 -45q23 -17 54 -47.5t43 -48.5q36 -49 36 -125v-37q0 -76 -36 -125q-12 -18 -43 -48.5t-54 -47.5q-64 -45 -147 -45h-490v700h-342v-440q0 -77 -36 -129q-13 -18 -46 -51.5t-57 -49.5q-61 -43 -145 -43h-92v193l102 4q46 28 66 70q2 6 2 10
v631h755zM907 367v-183h281l12 4q43 26 64 64q2 4 2 6v33l-2 6q-23 41 -62 65q-5 5 -14 5h-281z" />
    <glyph glyph-name="afii10107" unicode="&#x45a;" horiz-adv-x="1556" 
d="M637 885h207v-326h282q84 0 148 -45q23 -17 53.5 -47.5t42.5 -48.5q37 -51 37 -125v-37q0 -74 -37 -125q-12 -18 -42.5 -48.5t-53.5 -47.5q-64 -45 -148 -45h-489v377h-342v-367h-207v885h207v-324h342v324zM844 367v-183h280l13 4q41 25 63 64q2 4 2 6v33l-2 6
q-24 42 -61 65q-5 5 -15 5h-280z" />
    <glyph glyph-name="afii10108" unicode="&#x45b;" horiz-adv-x="997" 
d="M539 967h-263v-121q69 49 121 49h148q86 0 147 -45q23 -16 54.5 -48.5t44.5 -51.5q36 -52 36 -125v-625h-204v621l-2 10q-23 41 -66 67q-2 2 -12 2h-142q-19 0 -61.5 -33t-63.5 -59v-608h-204v967h-97v180h97v78h204v-78h263v-180z" />
    <glyph glyph-name="afii10109" unicode="&#x45c;" horiz-adv-x="1013" 
d="M958 0h-274l-326 362h-65v-362h-205v885h205v-330h67q90 99 302 330h268l-393 -428zM575 999l-188 56l188 243h242z" />
    <glyph glyph-name="afii10110" unicode="&#x45e;" horiz-adv-x="880" 
d="M485 1221h119q0 -89 -62 -151t-149 -62t-151 62.5t-64 150.5h119q0 -40 28.5 -69.5t67.5 -29.5t65.5 29.5t26.5 69.5zM870 885l-434 -1217h-207l123 332h-18l-326 885h230l206 -600l209 600h217z" />
    <glyph glyph-name="afii10193" unicode="&#x45f;" horiz-adv-x="1013" 
d="M565 -193h-200v193h-277v885h205v-690h346v690h205v-885h-279v-193z" />
    <glyph glyph-name="afii10050" unicode="&#x490;" horiz-adv-x="1005" 
d="M870 1020h-565v-1020h-215v1225h574v174h206v-379z" />
    <glyph glyph-name="afii10098" unicode="&#x491;" horiz-adv-x="841" 
d="M705 698h-3v-8h-409v-690h-205v885h418v170h199v-357z" />
    <glyph glyph-name="endash" unicode="&#x2013;" horiz-adv-x="952" 
d="M799 401h-727v193h727v-193z" />
    <glyph glyph-name="emdash" unicode="&#x2014;" horiz-adv-x="1110" 
d="M977 401h-905v191h905v-191z" />
    <glyph glyph-name="quoteleft" unicode="&#x2018;" horiz-adv-x="454" 
d="M354 1249l-151 -327h-230l183 389z" />
    <glyph glyph-name="quoteright" unicode="&#x2019;" horiz-adv-x="454" 
d="M-37 983l152 328h229l-182 -389z" />
    <glyph glyph-name="quotesinglbase" unicode="&#x201a;" horiz-adv-x="409" 
d="M344 154l-151 -328h-230l182 389z" />
    <glyph glyph-name="quotedblleft" unicode="&#x201c;" horiz-adv-x="790" 
d="M-27 971l152 327h229l-182 -389zM352 971l152 327h229l-182 -389z" />
    <glyph glyph-name="quotedblright" unicode="&#x201d;" horiz-adv-x="778" 
d="M723 1249l-152 -327h-229l182 389zM344 1249l-151 -327h-230l182 389z" />
    <glyph glyph-name="quotedblbase" unicode="&#x201e;" horiz-adv-x="788" 
d="M723 154l-152 -328h-229l182 389zM344 154l-151 -328h-230l182 389z" />
    <glyph glyph-name="dagger" unicode="&#x2020;" horiz-adv-x="671" 
d="M586 690h-135v-463h-205v463h-133v195h133v340h205v-340h135v-195z" />
    <glyph glyph-name="daggerdbl" unicode="&#x2021;" horiz-adv-x="671" 
d="M586 690h-135v-74h135v-194h-135v-422h-205v422h-133v194h133v74h-133v195h133v340h205v-340h135v-195z" />
    <glyph glyph-name="bullet" unicode="&#x2022;" horiz-adv-x="907" 
d="M702 489q0 -73 -45 -127q-50 -54 -94 -81q-50 -33 -119 -33h-51q-69 0 -119 33q-19 12 -51.5 38.5t-48.5 45.5q-41 49 -41 124v33q0 67 37.5 115t103.5 92q49 33 119 33h51q70 0 119 -33q65 -43 102 -91.5t37 -115.5v-33z" />
    <glyph glyph-name="ellipsis" unicode="&#x2026;" horiz-adv-x="1394" 
d="M1180 0h-252v258h252v-258zM809 0h-252v258h252v-258zM438 0h-252v258h252v-258z" />
    <glyph glyph-name="perthousand" unicode="&#x2030;" horiz-adv-x="2400" 
d="M1264 1227l-676 -1227h-232l674 1227h234zM2226 188q0 -63 -26 -98q-33 -42 -76 -76q-56 -34 -115 -34h-131q-60 0 -113 34q-17 12 -41 36.5t-36 39.5q-27 36 -27 98v263q0 62 27 98q12 15 36 39.5t41 36.5q53 34 113 34h131q59 0 115 -34q43 -34 76 -76q26 -35 26 -98
v-263zM2056 434q0 8 -2 10q-27 33 -47 45q-3 3 -10 3h-107q-7 0 -10 -3q-27 -17 -47 -45l-2 -10v-229q0 -6 2 -10q20 -28 47 -45q3 -3 10 -3h107q7 0 10 3q20 12 47 45q2 2 2 10v229zM637 772q0 -62 -27 -98q-34 -44 -75 -76q-58 -35 -115 -35h-131q-59 0 -113 35
q-43 31 -78 76q-26 35 -26 98v262q0 64 26 99q11 15 35.5 38.5t42.5 36.5q54 35 113 35h131q57 0 115 -35q17 -13 40.5 -37t34.5 -38q27 -36 27 -99v-262zM467 1018q0 8 -2 10q-27 33 -47 45q-2 2 -10 2h-107q-8 0 -10 -2q-27 -17 -47 -45l-2 -10v-230q0 -6 2 -10
q20 -28 47 -45q2 -2 10 -2h107q8 0 10 2q20 12 47 45q2 2 2 10v230zM1538 188q0 -62 -27 -98q-34 -44 -75 -76q-56 -34 -115 -34h-131q-60 0 -113 34q-43 31 -78 76q-26 35 -26 98v263q0 63 26 98q35 45 78 76q53 34 113 34h131q59 0 115 -34q41 -32 75 -76q27 -36 27 -98
v-263zM1368 434q0 8 -2 10q-27 33 -47 45q-3 3 -10 3h-107q-7 0 -10 -3q-27 -17 -47 -45l-2 -10v-229q0 -6 2 -10q20 -28 47 -45q3 -3 10 -3h107q7 0 10 3q20 12 47 45q2 2 2 10v229z" />
    <glyph glyph-name="guilsinglleft" unicode="&#x2039;" horiz-adv-x="770" 
d="M633 225l-227 -59l-330 332l330 331l223 -65l-277 -266z" />
    <glyph glyph-name="guilsinglright" unicode="&#x203a;" horiz-adv-x="747" 
d="M303 166l-227 59l280 273l-276 266l223 65l330 -331z" />
    <glyph glyph-name="fraction" unicode="&#x2044;" horiz-adv-x="1327" 
 />
    <glyph glyph-name="Euro" unicode="&#x20ac;" horiz-adv-x="1183" 
d="M991 238q-19 -43 -43 -78q-125 -170 -260 -170h-256q-66 0 -127 37q-31 18 -80 66.5t-69 78.5q-33 49 -33 117v92h-68v184h68v74h-68v186h68v109q0 66 33 115q22 30 70.5 80t78.5 67q68 37 127 37h256q131 0 260 -170q17 -25 43 -72l-209 -59q-61 76 -92 94q-2 2 -8 2
h-242l-8 -2q-21 -11 -49 -38.5t-43 -51.5q-2 -4 -2 -23v-88h440v-186h-440v-74h440v-184h-440v-90q0 -17 33.5 -48.5t60.5 -45.5q2 -2 14 -2h234q6 0 10 2q19 9 42 33t36 44l14 19z" />
    <glyph glyph-name="afii61352" unicode="&#x2116;" horiz-adv-x="1816" 
d="M956 0h-227l-424 813v-813h-215v1225h232l419 -824v824h215v-1225zM1671 772q0 -63 -26 -98q-33 -42 -76 -76q-58 -35 -115 -35h-131q-59 0 -113 35q-17 12 -41 36.5t-36 39.5q-27 36 -27 98v262q0 63 27 99q35 44 77 75q54 35 113 35h131q57 0 115 -35q45 -35 76 -75
q26 -35 26 -99v-262zM1501 1018q0 8 -2 10q-27 33 -47 45q-2 2 -10 2h-107q-8 0 -10 -2q-27 -17 -47 -45l-2 -10v-230q0 -6 2 -10q20 -28 47 -45q2 -2 10 -2h107q8 0 10 2q20 12 47 45q2 2 2 10v230z" />
    <glyph glyph-name="trademark" unicode="&#x2122;" horiz-adv-x="1286" 
d="M1112 621h-186v272l-49 -86h-123l-35 67v-253h-189v428h-102v-428h-188v428h-150v176h649l78 -148l86 148h209v-604z" />
    <glyph glyph-name="Omega" unicode="&#x2126;" horiz-adv-x="1255" 
d="M90 934q0 66 33 115q22 30 70.5 80t78.5 67q68 37 127 37h373q59 0 127 -37q30 -17 79.5 -67t70.5 -80q32 -47 32 -115v-471q0 -69 -34 -119q-42 -58 -148 -141l-4 -2h221v-201h-469v201q37 30 130 137.5t93 128.5v446q0 19 -2 23q-15 24 -43 51.5t-49 38.5q-4 2 -8 2
h-365l-8 -2q-21 -11 -49 -38.5t-43 -51.5q-2 -4 -2 -23v-446q0 -21 93 -128.5t130 -137.5v-201h-469v201h219l-2 2q-104 81 -147 141q-35 52 -35 119v471z" />
    <glyph glyph-name="partialdiff" unicode="&#x2202;" horiz-adv-x="997" 
d="M625 977q-54 61 -74 61h-219q2 0 -12.5 48t-29.5 96.5t-14 48.5h269q80 0 141 -45q22 -15 61 -54t52 -59q37 -55 37 -125v-678q0 -68 -37 -123q-13 -20 -52 -58.5t-61 -53.5q-61 -45 -141 -45h-183q-80 0 -141 45q-22 15 -60.5 53.5t-51.5 58.5q-37 55 -37 125v338
q0 72 37 127q13 20 51.5 58t60.5 53q61 43 141 43h150q21 0 50.5 -16.5t49.5 -32.5l19 -17v129q0 17 -6 23zM276 616v-337q0 -21 3 -27q14 -24 38 -46t37 -22h197q14 0 39 23t39 47q2 2 2 29v321q-8 16 -31 38t-42 36l-19 14q-7 6 -33 6h-152q-13 0 -37 -22t-38 -47
q-3 -7 -3 -13z" />
    <glyph glyph-name="Delta" unicode="&#x2206;" horiz-adv-x="1144" 
d="M1055 0h-1104l428 1225h250zM754 205l-250 743l-252 -743h502z" />
    <glyph glyph-name="product" unicode="&#x220f;" horiz-adv-x="1144" 
d="M940 0h-215v1020h-420v-1020h-215v1225h850v-1225z" />
    <glyph glyph-name="summation" unicode="&#x2211;" horiz-adv-x="1036" 
d="M702 631l-331 -426h526v-205h-805v174l354 461l-358 412v178h807v-205h-524z" />
    <glyph glyph-name="minus" unicode="&#x2212;" horiz-adv-x="962" 
d="M799 401h-727v195h727v-195z" />
    <glyph glyph-name="radical" unicode="&#x221a;" horiz-adv-x="1382" 
d="M1274 1530l-608 -1864h-217l-250 735h-215v193h358l260 -780l557 1716h115z" />
    <glyph glyph-name="infinity" unicode="&#x221e;" horiz-adv-x="1603" 
d="M362 229q-77 0 -122 35q-20 12 -51.5 43t-49.5 55q-43 61 -43 150v20q0 87 43 148q18 25 50 57t51 43q45 35 122 35h207q78 0 125 -35q16 -9 54 -47q26 29 53 47q47 35 125 35h207q77 0 124 -35q18 -12 49.5 -44t49.5 -56q45 -64 45 -148v-20q0 -86 -45 -150
q-17 -24 -48.5 -55t-50.5 -43q-47 -35 -124 -35h-207q-78 0 -125 35q-24 16 -53 45q-43 -39 -54 -45q-47 -35 -125 -35h-207zM580 623h-244q-11 0 -31 -24t-33 -46q-2 -4 -2 -12v-37q0 -6 6 -12q7 -16 28 -41.5t32 -26.5h244q6 0 12 2q16 9 35.5 29.5t29.5 38.5v18v20v19
q-27 49 -65 70zM1143 623h-244q-19 0 -63 -68q2 -8 2 -23v-20v-20q10 -18 30 -42.5t31 -25.5h244q6 0 12 2q16 9 36 29.5t30 38.5q2 4 2 10v37q0 6 -2 10q-27 48 -66 70z" />
    <glyph glyph-name="integral" unicode="&#x222b;" horiz-adv-x="686" 
d="M-78 -143h170q8 0 12 2q43 26 64 69q2 3 2 11v1015q4 80 39 127q13 19 44 51t54 48q64 45 150 45h172v-195h-170q-17 0 -19 -2q-18 -10 -41 -29.5t-24 -31.5v-17v-1016q0 -78 -35 -129q-13 -19 -45 -51.5t-55 -48.5q-61 -43 -146 -43h-172v195z" />
    <glyph glyph-name="approxequal" unicode="&#x2248;" horiz-adv-x="995" 
d="M842 311l-197 -37q-22 52 -51 45l-227 -24q-58 -10 -111 2t-101 53.5t-75 110.5l194 37q22 -52 52 -45l229 26q89 16 167.5 -25t119.5 -143zM842 616l-197 -36q-22 52 -51 45l-227 -25q-58 -10 -111 2t-101 53.5t-75 110.5l194 37q22 -52 52 -45l229 26q89 16 167.5 -25
t119.5 -143z" />
    <glyph glyph-name="notequal" unicode="&#x2260;" horiz-adv-x="995" 
d="M807 926l-84 -156h131v-190h-231l-64 -119h295v-189h-395l-90 -168h-236l90 168h-135v189h236l63 119h-299v190h401l84 156h234z" />
    <glyph glyph-name="lessequal" unicode="&#x2264;" horiz-adv-x="958" 
d="M805 809l-475 -254l473 -254v-227l-762 411v140l764 409v-225z" />
    <glyph glyph-name="greaterequal" unicode="&#x2265;" horiz-adv-x="958" 
d="M831 485l-761 -411v227l471 254l-473 254v225l763 -409v-140z" />
    <glyph glyph-name="lozenge" unicode="&#x25ca;" horiz-adv-x="1462" 
d="M946 580q-35 -47 -67 -74q-57 -47 -162 -47h-99v-195h-182v688h303q70 0 127 -41q20 -13 44 -39t36 -45q28 -46 31 -104v-33q0 -63 -31 -110zM807 725q-20 34 -55 57h-134v-151h136q31 16 53 57v37zM121 172q-35 52 -35 117v647q0 72 33 117q22 30 69.5 79t77.5 66
q58 35 125 35h619q67 0 125 -35q30 -17 77.5 -66t69.5 -79q35 -52 35 -117v-647q0 -72 -33 -117q-22 -30 -69.5 -79t-77.5 -66q-58 -35 -125 -35h-619q-67 0 -125 35q-30 17 -77.5 66t-69.5 79zM1114 293v639q0 11 -38 52t-62 52q-8 4 -15 4h-596q-10 0 -18 -4
q-22 -11 -51 -37.5t-43 -54.5q-2 -4 -2 -12v-639q0 -11 38 -52.5t62 -52.5q8 -4 14 -4h596q11 0 19 4q22 10 51 37.5t43 55.5q2 4 2 12z" />
    <glyph glyph-name="apple" unicode="&#xf8ff;" horiz-adv-x="1024" 
 />
    <glyph glyph-name="fi" unicode="&#xfb01;" horiz-adv-x="1138" 
d="M629 1038h-191q-16 0 -18 -2q-18 -10 -40.5 -29.5t-23.5 -31.5v-90h224v-195h-224v-690h-204v690h-138v195h138v78q0 79 36 127q13 19 44.5 50.5t54.5 47.5q64 45 149 45h193v-195zM997 1010h-219v219h219v-219zM991 0h-205v885h205v-885z" />
    <glyph glyph-name="fl" unicode="&#xfb02;" horiz-adv-x="1167" 
d="M629 1038h-191q-16 0 -18 -2q-18 -10 -40.5 -29.5t-23.5 -31.5v-90h224v-195h-224v-690h-204v690h-138v195h138v78q0 79 36 127q13 19 44.5 50.5t54.5 47.5q64 45 149 45h193v-195zM1006 0h-207l-21 152v1073h205v-1051z" />
    <glyph glyph-name="HT" horiz-adv-x="1024" 
 />
    <glyph glyph-name="LF" horiz-adv-x="1024" 
 />
    <glyph glyph-name="DLE" horiz-adv-x="1024" 
 />
    <glyph glyph-name="DC1" horiz-adv-x="421" 
 />
    <glyph glyph-name="DC2" horiz-adv-x="456" 
 />
    <glyph glyph-name="DC3" horiz-adv-x="612" 
 />
    <glyph glyph-name="DC4" horiz-adv-x="681" 
 />
    <glyph glyph-name="RS" horiz-adv-x="1024" 
 />
    <glyph glyph-name="US" horiz-adv-x="1024" 
 />
    <glyph glyph-name="DEL" horiz-adv-x="1024" 
 />
    <glyph glyph-name="NUL" horiz-adv-x="1024" 
 />
    </font>
</defs>
</svg>
