<?xml version="1.0" standalone="no"?>
<!DOCTYPE svg PUBLIC "-//W3C//DTD SVG 1.1//EN" "http://www.w3.org/Graphics/SVG/1.1/DTD/svg11.dtd" >
<svg xmlns="http://www.w3.org/2000/svg" xmlns:xlink="http://www.w3.org/1999/xlink" version="1.1">
<metadata>
Created by FontForge 20201107 at Mon Jul 13 08:21:01 2015
 By 
Copyright (c) 2012, Carrois Type Design, Ralph du Carrois (post@carrois.com www.carrois.com), with Reserved Font Name 'Share'
</metadata>
<defs>
<font id="ShareTechMono-Regular" horiz-adv-x="540" >
  <font-face 
    font-family="Share Tech Mono"
    font-weight="400"
    font-stretch="normal"
    units-per-em="1000"
    panose-1="2 11 5 9 5 0 0 2 0 4"
    ascent="800"
    descent="-200"
    x-height="500"
    cap-height="700"
    bbox="-30 -235 1010 855"
    underline-thickness="50"
    underline-position="-135"
    unicode-range="U+000D-FB02"
  />
<missing-glyph 
d="M456 0h-372v700h372v-700zM159 628v-556h222v556h-222z" />
    <glyph glyph-name="fi" unicode="fi" horiz-adv-x="1080" 
d="M278.5 616.5q-9.5 -8.5 -9.5 -21.5v-95h161v-75h-161v-350h121v-75h-291v75h85v350h-85v75h85v90q0 51 29 80.5t75 29.5h152v-75h-136q-16 0 -25.5 -8.5zM857 700v-90h-95v90h95zM620 425v75h232v-425h148v-75h-233v425h-147z" />
    <glyph glyph-name="fl" unicode="fl" horiz-adv-x="1080" 
d="M278.5 616.5q-9.5 -8.5 -9.5 -21.5v-95h161v-75h-161v-350h121v-75h-291v75h85v350h-85v75h85v90q0 51 29 80.5t75 29.5h152v-75h-136q-16 0 -25.5 -8.5zM782.5 24q-25.5 24 -25.5 76v525h-147v75h232v-595q0 -16 8 -23t27 -7h133v-75h-168q-34 0 -59.5 24z" />
    <glyph glyph-name=".notdef" 
d="M456 0h-372v700h372v-700zM159 628v-556h222v556h-222z" />
    <glyph glyph-name=".null" horiz-adv-x="0" 
 />
    <glyph glyph-name=".null" horiz-adv-x="0" 
 />
    <glyph glyph-name="nonmarkingreturn" unicode="&#xd;" 
 />
    <glyph glyph-name="space" unicode=" " 
 />
    <glyph glyph-name="exclam" unicode="!" 
d="M312 700v-492h-85v492h85zM320 100v-100h-100v100h100z" />
    <glyph glyph-name="quotedbl" unicode="&#x22;" 
d="M145 610v90h95v-90l-20 -157h-55zM300 610v90h95v-90l-20 -157h-55z" />
    <glyph glyph-name="numbersign" unicode="#" 
d="M310 0v180h-80v-180h-80v180h-70v75h70v200h-70v75h70v170h80v-170h80v170h80v-170h70v-75h-70v-200h70v-75h-70v-180h-80zM230 255h80v200h-80v-200z" />
    <glyph glyph-name="dollar" unicode="$" 
d="M122 0v76h142q37 0 60 22t23 53v84q0 30 -15.5 48.5t-46.5 18.5h-20q-74 0 -117 43.5t-43 126.5v28q0 138 122 164v116h85v-110h106v-76h-143q-37 0 -60 -22t-23 -53v-66q0 -31 20 -51.5t52 -20.5h20q71 0 110.5 -41t39.5 -124v-46q0 -69 -31.5 -110.5t-90.5 -54.5v-115
h-85v110h-105z" />
    <glyph glyph-name="percent" unicode="%" 
d="M257 436.5q-32 -32.5 -90 -32.5h-8q-58 0 -90 32.5t-32 95.5v40q0 63 32 95.5t90 32.5h8q58 0 90 -32.5t32 -95.5v-40q0 -63 -32 -95.5zM206 624q-13 16 -39 16h-8q-26 0 -39 -16t-13 -41v-62q0 -25 13 -41t39 -16h8q26 0 39 16t13 41v62q0 25 -13 41zM527 416v-62
l-515 -73v62zM467 32.5q-32 -32.5 -90 -32.5h-8q-58 0 -90 32.5t-32 95.5v40q0 63 32 95.5t90 32.5h8q58 0 90 -32.5t32 -95.5v-40q0 -63 -32 -95.5zM416 220q-13 16 -39 16h-8q-26 0 -39 -16t-13 -41v-62q0 -25 13 -41t39 -16h8q26 0 39 16t13 41v62q0 25 -13 41z" />
    <glyph glyph-name="ampersand" unicode="&#x26;" 
d="M123 37.5q-40 37.5 -40 120.5v126q0 87 65 123q-55 39 -55 116v21q0 81 43.5 118.5t128.5 37.5h106v-75h-118q-38 0 -55.5 -17t-17.5 -55v-40q0 -33 21 -53t52 -20h243v-75h-79v-365h-164q-90 0 -130 37.5zM190 345.5q-20 -19.5 -20 -52.5v-145q0 -38 18 -55.5t56 -17.5
h92v290h-93q-33 0 -53 -19.5z" />
    <glyph glyph-name="quotesingle" unicode="'" 
d="M222 610v90h95v-90l-20 -157h-55z" />
    <glyph glyph-name="parenleft" unicode="(" 
d="M199.5 693q29.5 72 82.5 127h88q-48 -58 -71 -97.5t-33.5 -88.5t-10.5 -127v-314q0 -78 10.5 -127t33.5 -88.5t71 -97.5h-88q-53 55 -82.5 127t-29.5 188v310q0 116 29.5 188z" />
    <glyph glyph-name="parenright" unicode=")" 
d="M340.5 7q-29.5 -72 -82.5 -127h-88q48 58 71 97.5t33.5 88.5t10.5 127v314q0 78 -10.5 127t-33.5 88.5t-71 97.5h88q53 -55 82.5 -127t29.5 -188v-310q0 -116 -29.5 -188z" />
    <glyph glyph-name="asterisk" unicode="*" 
d="M357 340l-88 142l-91 -142l-70 53l107 122l-145 32l27 80l141 -57l-13 152h90l-13 -152l143 55l25 -79l-147 -31l106 -123z" />
    <glyph glyph-name="plus" unicode="+" 
d="M230 118v157h-151v75h151v158h80v-158h150v-75h-150v-157h-80z" />
    <glyph glyph-name="comma" unicode="," 
d="M240 0v100h100v-100l-62 -140h-78z" />
    <glyph glyph-name="hyphen" unicode="-" 
d="M432 350v-75h-325v75h325z" />
    <glyph glyph-name="period" unicode="." 
d="M320 100v-100h-100v100h100z" />
    <glyph glyph-name="slash" unicode="/" 
d="M406 810h84l-356 -920h-84z" />
    <glyph glyph-name="zero" unicode="0" 
d="M402.5 43.5q-45.5 -43.5 -122.5 -43.5h-20q-77 0 -122.5 43.5t-45.5 126.5v360q0 84 45 127t123 43h20q78 0 123 -43t45 -127v-360q0 -83 -45.5 -126.5zM339.5 602.5q-23.5 22.5 -59.5 22.5h-20q-36 0 -59.5 -22.5t-23.5 -53.5v-271l186 271q0 31 -23.5 53.5zM200.5 97.5
q23.5 -22.5 59.5 -22.5h20q36 0 59.5 22.5t23.5 53.5v270l-186 -270q0 -31 23.5 -53.5z" />
    <glyph glyph-name="one" unicode="1" 
d="M243 75v546l-141 -52v81l131 50h95v-625h109v-75h-325v75h131z" />
    <glyph glyph-name="two" unicode="2" 
d="M265 316q32 46 43.5 65.5t15.5 39.5t4 58v70q0 31 -23 53t-60 22h-120v76h110q87 0 133.5 -42.5t46.5 -127.5v-42q0 -50 -7 -81t-20 -55t-43 -67l-148 -209h238v-76h-330v88z" />
    <glyph glyph-name="three" unicode="3" 
d="M379 37.5q-40 -37.5 -130 -37.5h-128v75h137q38 0 56 17.5t18 55.5v103q0 33 -20 52.5t-53 19.5h-107v75h97q31 0 52 20t21 53v82q0 38 -17.5 55t-55.5 17h-128v75h116q85 0 128.5 -37.5t43.5 -118.5v-63q0 -77 -55 -116q65 -36 65 -123v-84q0 -83 -40 -120.5z" />
    <glyph glyph-name="four" unicode="4" 
d="M293 0v156h-206v86l107 458h81l-102 -471h120v228h85v-228h75v-73h-75v-156h-85z" />
    <glyph glyph-name="five" unicode="5" 
d="M380 37.5q-40 -37.5 -130 -37.5h-131v75h140q38 0 56 17.5t18 55.5v127q0 33 -20 52.5t-53 19.5h-131v353h276v-75h-191v-203h41q77 0 121 -38t44 -118v-108q0 -83 -40 -120.5z" />
    <glyph glyph-name="six" unicode="6" 
d="M403 44q-45 -44 -113 -44h-35q-68 0 -113 44t-45 126v360q0 85 45.5 127.5t132.5 42.5h125v-76h-135q-37 0 -60 -22t-23 -53v-109h98q86 0 127 -38t41 -122v-110q0 -82 -45 -126zM203 97q21 -22 57 -22h25q36 0 57 22t21 54v148q0 31 -18.5 48.5t-54.5 17.5h-108v-214
q0 -32 21 -54z" />
    <glyph glyph-name="seven" unicode="7" 
d="M346 625h-242v75h325v-97l-176 -603h-89z" />
    <glyph glyph-name="eight" unicode="8" 
d="M414 37.5q-40 -37.5 -130 -37.5h-28q-90 0 -130 37.5t-40 120.5v84q0 87 65 123q-53 37 -53 116v63q0 80 42 118t120 38h20q78 0 120 -38t42 -118v-63q0 -79 -53 -116q65 -36 65 -123v-84q0 -83 -40 -120.5zM199.5 606.5q-14.5 -17.5 -14.5 -53.5v-82q0 -32 18.5 -51.5
t46.5 -21.5h34q31 0 51 20t20 53v82q0 38 -16.5 55t-54.5 17h-36q-34 -1 -48.5 -18.5zM347 303.5q-20 19.5 -53 19.5h-48q-33 0 -53 -19.5t-20 -52.5v-103q0 -37 16 -55t50 -18h54q38 0 56 17.5t18 55.5v103q0 33 -20 52.5z" />
    <glyph glyph-name="nine" unicode="9" 
d="M141 656q45 44 113 44h35q68 0 113 -44t45 -126v-360q0 -85 -45.5 -127.5t-132.5 -42.5h-115v76h125q37 0 60 22t23 53v109h-98q-86 0 -127 38t-41 122v110q0 82 45 126zM341 603q-21 22 -57 22h-25q-36 0 -57 -22t-21 -54v-148q0 -31 18.5 -48.5t54.5 -17.5h108v214
q0 32 -21 54z" />
    <glyph glyph-name="colon" unicode=":" 
d="M320 500v-100h-100v100h100zM320 100v-100h-100v100h100z" />
    <glyph glyph-name="semicolon" unicode=";" 
d="M340 500v-100h-100v100h100zM240 0v100h100v-100l-62 -140h-78z" />
    <glyph glyph-name="less" unicode="&#x3c;" 
d="M460 564v-92l-310 -136l310 -137v-94l-380 175v105z" />
    <glyph glyph-name="equal" unicode="=" 
d="M460 450v-75h-380v75h380zM460 250v-75h-380v75h380z" />
    <glyph glyph-name="greater" unicode="&#x3e;" 
d="M396 336l-316 136v92l380 -179v-105l-380 -175v94z" />
    <glyph glyph-name="question" unicode="?" 
d="M405 455.5q-4 -20.5 -18 -41t-49 -56.5l-53 -54v-96h-85v121l58 61q32 34 45 51t17 30.5t4 37.5v50q0 31 -18 48t-55 17h-125v76h115q168 0 168 -150v-32q0 -42 -4 -62.5zM293 100v-100h-100v100h100z" />
    <glyph glyph-name="at" unicode="@" 
d="M62 32.5q-33 32.5 -33 107.5v410q0 79 37.5 114.5t122.5 35.5h165q84 0 120.5 -34.5t36.5 -115.5v-327q0 -60 -24.5 -84t-75.5 -24q-33 0 -54.5 15.5t-24.5 44.5q-15 -16 -33 -23.5t-48 -7.5q-51 0 -74 25.5t-23 89.5v144q0 54 15 83.5t47.5 41t91.5 11.5h72v-328
q0 -21 6.5 -31t23.5 -10q19 0 25 9t6 37v344q0 38 -18 57.5t-59 19.5h-185q-43 0 -61.5 -19t-18.5 -58v-430q0 -67 67 -67h185v-63h-185q-71 0 -104 32.5zM299 217.5q13 15.5 13 36.5v228h-15q-43 0 -59 -14.5t-16 -58.5v-156q0 -24 7.5 -37.5t30.5 -13.5q26 0 39 15.5z" />
    <glyph glyph-name="A" unicode="A" 
d="M173 177l-39 -177h-89l169 700h115l166 -700h-89l-38 177h-195zM352 252l-82 382l-81 -382h163z" />
    <glyph glyph-name="B" unicode="B" 
d="M415.5 36q-39.5 -36 -130.5 -36h-200v700h188q89 0 130.5 -36t41.5 -120v-57q0 -77 -55 -116q65 -36 65 -123v-90q0 -86 -39.5 -122zM340.5 608q-17.5 17 -55.5 17h-113v-221h113q31 0 52 20t21 53v76q0 38 -17.5 55zM348 309.5q-20 19.5 -53 19.5h-123v-254h122
q38 0 56 17.5t18 55.5v109q0 33 -20 52.5z" />
    <glyph glyph-name="C" unicode="C" 
d="M155.5 42.5q-46.5 42.5 -46.5 127.5v360q0 85 46.5 127.5t133.5 42.5h142v-76h-152q-37 0 -60 -22t-23 -53v-398q0 -31 23 -53t60 -22h152v-76h-142q-87 0 -133.5 42.5z" />
    <glyph glyph-name="D" unicode="D" 
d="M418.5 36q-39.5 -36 -130.5 -36h-206v700h194q90 0 136 -36.5t46 -119.5v-386q0 -86 -39.5 -122zM351 605.5q-20 19.5 -53 19.5h-129v-550h128q38 0 56 17.5t18 55.5v405q0 33 -20 52.5z" />
    <glyph glyph-name="E" unicode="E" 
d="M437 700v-73h-247v-229h222v-73h-222v-252h247v-73h-334v700h334z" />
    <glyph glyph-name="F" unicode="F" 
d="M415 388v-73h-222v-315h-87v700h334v-73h-247v-239h222z" />
    <glyph glyph-name="G" unicode="G" 
d="M140.5 42.5q-46.5 42.5 -46.5 127.5v360q0 85 46.5 127.5t133.5 42.5h141v-76h-151q-37 0 -60 -22t-23 -53v-398q0 -31 23 -53t60 -22h98v217h-87v75h170v-368h-171q-87 0 -133.5 42.5z" />
    <glyph glyph-name="H" unicode="H" 
d="M167 322v-322h-87v700h87v-304h206v304h87v-700h-87v322h-206z" />
    <glyph glyph-name="I" unicode="I" 
d="M226 73v554h-90v73h267v-73h-90v-554h90v-73h-267v73h90z" />
    <glyph glyph-name="J" unicode="J" 
d="M363.5 42.5q-46.5 -42.5 -133.5 -42.5h-105v76h115q37 0 60 22t23 53v474h-161v75h248v-530q0 -85 -46.5 -127.5z" />
    <glyph glyph-name="K" unicode="K" 
d="M168 258v-258h-87v700h87v-302l190 302h95l-193 -309l205 -391h-100l-159 315z" />
    <glyph glyph-name="L" unicode="L" 
d="M202 700v-624h223v-76h-310v700h87z" />
    <glyph glyph-name="M" unicode="M" 
d="M310 235h-83l-98 393v-628h-76v700h139l80 -358l81 358h135v-700h-78v628z" />
    <glyph glyph-name="N" unicode="N" 
d="M160 0h-81v700h142l158 -626v626h81v-700h-143l-157 626v-626z" />
    <glyph glyph-name="O" unicode="O" 
d="M423.5 42.5q-46.5 -42.5 -133.5 -42.5h-40q-87 0 -133.5 42.5t-46.5 127.5v360q0 85 46.5 127.5t133.5 42.5h40q87 0 133.5 -42.5t46.5 -127.5v-360q0 -85 -46.5 -127.5zM360 602q-23 22 -60 22h-60q-37 0 -60 -22t-23 -53v-398q0 -31 23 -53t60 -22h60q37 0 60 22t23 53
v398q0 31 -23 53z" />
    <glyph glyph-name="P" unicode="P" 
d="M408 310.5q-43 -38.5 -127 -38.5h-104v-272h-87v700h189q85 0 128.5 -37.5t43.5 -118.5v-114q0 -81 -43 -119.5zM346.5 608q-17.5 17 -55.5 17h-114v-278h114q38 0 55.5 17.5t17.5 55.5v133q0 38 -17.5 55z" />
    <glyph glyph-name="Q" unicode="Q" 
d="M290 0h-40q-87 0 -133.5 42.5t-46.5 127.5v360q0 85 46.5 127.5t133.5 42.5h40q87 0 133.5 -42.5t46.5 -127.5v-360q0 -59 -23 -99l73 -73l-57 -57l-77 77q-39 -18 -96 -18zM360 602q-23 22 -60 22h-60q-37 0 -60 -22t-23 -53v-398q0 -31 23 -53t60 -22h60q37 0 60 22
t23 53v398q0 31 -23 53z" />
    <glyph glyph-name="R" unicode="R" 
d="M157 290v-290h-87v700h188q85 0 128.5 -37.5t43.5 -118.5v-96q0 -113 -90 -141l139 -307h-95l-129 290h-98zM325.5 608q-17.5 17 -55.5 17h-113v-260h113q38 0 55.5 17.5t17.5 55.5v115q0 38 -17.5 55z" />
    <glyph glyph-name="S" unicode="S" 
d="M392.5 42.5q-46.5 -42.5 -133.5 -42.5h-142v76h152q37 0 60 22t23 53v104q0 30 -15.5 48.5t-46.5 18.5h-30q-74 0 -117 43.5t-43 126.5v38q0 85 46.5 127.5t133.5 42.5h143v-76h-153q-37 0 -60 -22t-23 -53v-76q0 -31 20 -51.5t52 -20.5h30q71 0 110.5 -41t39.5 -124v-66
q0 -85 -46.5 -127.5z" />
    <glyph glyph-name="T" unicode="T" 
d="M226 0v624h-159v76h405v-76h-159v-624h-87z" />
    <glyph glyph-name="U" unicode="U" 
d="M415.5 42.5q-46.5 -42.5 -133.5 -42.5h-25q-87 0 -133.5 42.5t-46.5 127.5v530h87v-549q0 -31 23 -53t60 -22h45q37 0 60 22t23 53v549h87v-530q0 -85 -46.5 -127.5z" />
    <glyph glyph-name="V" unicode="V" 
d="M56 700h88l120 -612l129 612h86l-157 -700h-119z" />
    <glyph glyph-name="W" unicode="W" 
d="M268 284l-63 -284h-120l-34 700h74l30 -625l83 330h62l85 -330l31 625h69l-34 -700h-126z" />
    <glyph glyph-name="X" unicode="X" 
d="M145 0h-94l174 362l-158 338h95l110 -237l114 237h93l-162 -337l172 -363h-98l-120 263z" />
    <glyph glyph-name="Y" unicode="Y" 
d="M223 0v325l-179 375h96l132 -291l132 291h91l-182 -375v-325h-90z" />
    <glyph glyph-name="Z" unicode="Z" 
d="M441 0h-354v88l274 538h-251v74h341v-88l-273 -538h263v-74z" />
    <glyph glyph-name="bracketleft" unicode="[" 
d="M375 820v-75h-130v-790h130v-75h-210v940h210z" />
    <glyph glyph-name="backslash" unicode="\" 
d="M490 -110h-84l-356 920h84z" />
    <glyph glyph-name="bracketright" unicode="]" 
d="M295 -45v790h-130v75h210v-940h-210v75h130z" />
    <glyph glyph-name="asciicircum" unicode="^" 
d="M159 420h-88l144 340h114l139 -340h-91l-104 280z" />
    <glyph glyph-name="underscore" unicode="_" 
d="M522 -95v-75h-504v75h504z" />
    <glyph glyph-name="grave" unicode="`" 
d="M267 715l104 -135h-86l-122 135h104z" />
    <glyph glyph-name="a" unicode="a" 
d="M388.5 8q-15.5 8 -26.5 22q-23 -30 -61 -30h-89q-76 0 -110.5 30.5t-34.5 104.5v20q0 155 146 155h124v50q0 31 -19 48t-56 17h-155v75h145q87 0 128.5 -38t41.5 -122v-240q0 -15 11.5 -22.5t38.5 -7.5v-70h-55q-13 0 -28.5 8zM329 89q8 14 8 36v110h-125q-26 0 -43 -17
t-17 -43v-50q0 -26 12 -38t38 -12h89q30 0 38 14z" />
    <glyph glyph-name="b" unicode="b" 
d="M411.5 38q-41.5 -38 -128.5 -38h-196v700h85v-220q30 20 75 20h36q88 0 129 -37.5t41 -122.5v-180q0 -84 -41.5 -122zM188 407.5q-16 -17.5 -16 -37.5v-295h121q37 0 56 17t19 48v220q0 31 -19 48t-56 17h-56q-33 0 -49 -17.5z" />
    <glyph glyph-name="c" unicode="c" 
d="M161 37.5q-41 37.5 -41 122.5v180q0 84 41.5 122t128.5 38h129v-75h-139q-37 0 -56 -17t-19 -48v-220q0 -31 19 -48t56 -17h139v-75h-129q-88 0 -129 37.5z" />
    <glyph glyph-name="d" unicode="d" 
d="M295 0h-41q-88 0 -129 37.5t-41 122.5v180q0 84 41.5 122t128.5 38h116v200h85v-700h-80v23q-33 -23 -80 -23zM354 92.5q16 17.5 16 37.5v295h-126q-37 0 -56 -17t-19 -48v-220q0 -31 19 -48t56 -17h61q33 0 49 17.5z" />
    <glyph glyph-name="e" unicode="e" 
d="M135 37.5q-41 37.5 -41 122.5v180q0 86 37 123t123 37h47q71 0 107.5 -39.5t36.5 -115.5v-130h-266v-75q0 -31 19 -48t56 -17h159v-75h-149q-88 0 -129 37.5zM362 365q0 26 -17 43t-43 17h-58q-36 0 -50.5 -16.5t-14.5 -48.5v-70h183v75z" />
    <glyph glyph-name="f" unicode="f" 
d="M278.5 616.5q-9.5 -8.5 -9.5 -21.5v-95h161v-75h-161v-350h121v-75h-291v75h85v350h-85v75h85v90q0 51 29 80.5t75 29.5h152v-75h-136q-16 0 -25.5 -8.5z" />
    <glyph glyph-name="g" unicode="g" 
d="M426.5 -136.5q-40.5 -33.5 -126.5 -33.5h-208v75h218q36 0 54 14t18 36v32q0 23 -18 36.5t-54 13.5h-173v138q-33 18 -49 52t-16 88v25q0 84 41.5 122t128.5 38h210v-185q0 -75 -41 -117.5t-109 -42.5h-80v-43h78q86 0 126.5 -33.5t40.5 -101.5v-12q0 -68 -40.5 -101.5z
M349 250q16 20 18 42v133h-135q-37 0 -56 -17t-19 -48v-65q0 -31 19 -48t56 -17h70q31 0 47 20z" />
    <glyph glyph-name="h" unicode="h" 
d="M172 700v-220q30 20 75 20h46q81 0 120.5 -38t39.5 -122v-340h-85v360q0 30 -17.5 47.5t-47.5 17.5h-66q-32 0 -48 -16.5t-17 -35.5v-373h-85v700h85z" />
    <glyph glyph-name="i" unicode="i" 
d="M317 700v-90h-95v90h95zM80 425v75h232v-425h148v-75h-233v425h-147z" />
    <glyph glyph-name="j" unicode="j" 
d="M402 700v-90h-95v90h95zM303.5 -86.5q9.5 8.5 9.5 21.5v490h-147v75h232v-560q0 -51 -29 -80.5t-75 -29.5h-157v75h141q16 0 25.5 8.5z" />
    <glyph glyph-name="k" unicode="k" 
d="M181 214v-214h-85v700h85v-378l157 178h107l-174 -197l188 -303h-105l-147 244z" />
    <glyph glyph-name="l" unicode="l" 
d="M242.5 24q-25.5 24 -25.5 76v525h-147v75h232v-595q0 -16 8 -23t27 -7h133v-75h-168q-34 0 -59.5 24z" />
    <glyph glyph-name="m" unicode="m" 
d="M118 500v-23q26 23 62 23h6q70 0 99 -40q33 40 87 40h6q61 0 90 -31t29 -110v-359h-80v360q0 41 -8.5 57t-38.5 16h-6q-30 0 -41.5 -20.5t-12.5 -45.5v-367h-80v360q0 42 -10 57.5t-36 15.5h-6q-30 0 -42 -17.5t-13 -39.5v-376h-80v500h75z" />
    <glyph glyph-name="n" unicode="n" 
d="M167 500v-24q31 24 80 24h46q81 0 120.5 -38t39.5 -122v-340h-85v360q0 30 -17.5 47.5t-47.5 17.5h-66q-33 0 -49 -17.5t-16 -37.5v-370h-85v500h80z" />
    <glyph glyph-name="o" unicode="o" 
d="M414.5 38q-41.5 -38 -128.5 -38h-33q-87 0 -128.5 38t-41.5 122v180q0 84 41.5 122t128.5 38h33q87 0 128.5 -38t41.5 -122v-180q0 -84 -41.5 -122zM352 408q-19 17 -56 17h-53q-37 0 -56 -17t-19 -48v-220q0 -31 19 -48t56 -17h53q37 0 56 17t19 48v220q0 31 -19 48z
" />
    <glyph glyph-name="p" unicode="p" 
d="M167 500v-24q31 24 80 24h36q88 0 129 -37.5t41 -122.5v-180q0 -84 -41.5 -122t-128.5 -38h-111v-170h-85v670h80zM188 407.5q-16 -17.5 -16 -37.5v-295h121q37 0 56 17t19 48v220q0 31 -19 48t-56 17h-56q-33 0 -49 -17.5z" />
    <glyph glyph-name="q" unicode="q" 
d="M295 0h-41q-88 0 -129 37.5t-41 122.5v180q0 84 41.5 122t128.5 38h201v-670h-85v190q-31 -20 -75 -20zM354 92.5q16 17.5 16 37.5v295h-126q-37 0 -56 -17t-19 -48v-220q0 -31 19 -48t56 -17h61q33 0 49 17.5z" />
    <glyph glyph-name="r" unicode="r" 
d="M173 75v350h-73v75h153v-27q33 27 80 27h103v-80h-113q-32 0 -48 -20.5t-17 -41.5v-283h109v-75h-267v75h73z" />
    <glyph glyph-name="s" unicode="s" 
d="M383.5 31q-38.5 -31 -111.5 -31h-149v75h159q27 0 41 11.5t14 33.5v53q0 45 -43 45h-37q-70 0 -104.5 30.5t-34.5 96.5v29q0 67 38 96.5t112 29.5h134v-75h-144q-25 0 -40 -11.5t-15 -33.5v-36q0 -23 13.5 -34t34.5 -11h34q67 0 102 -32.5t35 -96.5v-45q0 -63 -38.5 -94z
" />
    <glyph glyph-name="t" unicode="t" 
d="M229 33q-27 33 -27 87v305h-95v75h95v120h85v-120h146v-75h-146v-310q0 -22 11 -31t34 -9h101v-75h-126q-51 0 -78 33z" />
    <glyph glyph-name="u" unicode="u" 
d="M287 0h-34q-81 0 -120.5 38t-39.5 122v340h85v-360q0 -30 17.5 -47.5t47.5 -17.5h54q32 0 47.5 16t17.5 36v373h85v-500h-80v23q-33 -23 -80 -23z" />
    <glyph glyph-name="v" unicode="v" 
d="M64 500h92l117 -431l114 431h89l-144 -500h-123z" />
    <glyph glyph-name="w" unicode="w" 
d="M272 251l-54 -251h-93l-90 500h85l57 -397l66 307h65l60 -307l57 397h80l-89 -500h-96z" />
    <glyph glyph-name="x" unicode="x" 
d="M159 0h-94l156 258l-144 242h99l95 -168l97 168h93l-146 -238l159 -262h-100l-105 189z" />
    <glyph glyph-name="y" unicode="y" 
d="M216 -86q12 9 18 31l14 55h-20l-165 500h92l125 -419l109 419h87l-155 -554q-13 -51 -32 -76t-42.5 -32.5t-60.5 -7.5h-48v75h42q24 0 36 9z" />
    <glyph glyph-name="z" unicode="z" 
d="M424 0h-318v80l234 346h-214v74h308v-89l-232 -337h222v-74z" />
    <glyph glyph-name="braceleft" unicode="{" 
d="M202.5 417.5q15.5 12.5 15.5 51.5v229q0 67 25 94.5t84 27.5h65v-70h-51q-24 0 -34.5 -7.5t-10.5 -29.5v-244q0 -50 -24.5 -82t-60.5 -38q36 -4 60.5 -36t24.5 -82v-244q0 -22 10.5 -29.5t34.5 -7.5h51v-70h-65q-59 0 -84 27.5t-25 94.5v229q0 39 -15.5 51.5t-55.5 12.5
v110q40 0 55.5 12.5z" />
    <glyph glyph-name="bar" unicode="|" 
d="M310 810v-920h-80v920h80z" />
    <glyph glyph-name="braceright" unicode="}" 
d="M336.5 282.5q-15.5 -12.5 -15.5 -51.5v-229q0 -67 -25 -94.5t-84 -27.5h-65v70h51q24 0 34.5 7.5t10.5 29.5v244q0 50 24.5 82t60.5 36q-36 6 -60.5 38t-24.5 82v244q0 22 -10.5 29.5t-34.5 7.5h-51v70h65q59 0 84 -27.5t25 -94.5v-229q0 -39 15.5 -51.5t55.5 -12.5v-110
q-40 0 -55.5 -12.5z" />
    <glyph glyph-name="asciitilde" unicode="~" 
d="M148.5 366.5q36.5 14.5 48.5 14.5h15q13 0 67 -20q52 -20 64 -20h10q7 0 41 15t46 21v-80q-11 -6 -44 -20.5t-44 -14.5h-15q-6 0 -53 17q-65 23 -77 23h-10q-9 0 -46.5 -15t-50.5 -21v80q12 6 48.5 20.5z" />
    <glyph glyph-name="uni00A0" unicode="&#xa0;" 
 />
    <glyph glyph-name="exclamdown" unicode="&#xa1;" 
d="M220 400v100h100v-100h-100zM228 -200v492h85v-492h-85z" />
    <glyph glyph-name="cent" unicode="&#xa2;" 
d="M154 43.5q-34 37.5 -34 115.5v180q0 77 34 114.5t106 43.5v103h80v-101h79v-75h-139q-37 0 -56 -17t-19 -48v-220q0 -31 19 -48t56 -17h139v-75h-79v-109h-80v110q-72 6 -106 43.5z" />
    <glyph glyph-name="sterling" unicode="&#xa3;" 
d="M162 530q0 85 46.5 127.5t133.5 42.5h97v-76h-107q-37 0 -60 -22t-23 -53v-136h128v-73h-128v-267h198v-73h-355v73h70v267h-70v73h70v117z" />
    <glyph glyph-name="currency" unicode="&#xa4;" 
d="M73 252v98q0 48 12 79l-71 72l57 57l68 -68q37 20 104 20h53q65 0 104 -21l69 69l57 -57l-73 -73q13 -30 13 -78v-98q0 -45 -12 -77l72 -72l-57 -57l-67 67q-40 -21 -106 -21h-53q-69 0 -105 21l-67 -67l-57 57l71 71q-12 32 -12 78zM362 418q-19 17 -56 17h-73
q-37 0 -56 -17t-19 -48v-138q0 -31 19 -48t56 -17h73q37 0 56 17t19 48v138q0 31 -19 48z" />
    <glyph glyph-name="yen" unicode="&#xa5;" 
d="M224 0v115h-130v75h130v75h-130v75h127l-166 360h96l122 -273l121 273h91l-169 -360h128v-75h-130v-75h130v-75h-130v-115h-90z" />
    <glyph glyph-name="brokenbar" unicode="&#xa6;" 
d="M310 810v-360h-80v360h80zM310 250v-360h-80v360h80z" />
    <glyph glyph-name="section" unicode="&#xa7;" 
d="M125.5 419.5q12.5 28.5 31.5 42.5q-14 15 -22 37.5t-8 50.5v10q0 73 38 106.5t112 33.5h124v-75h-134q-24 0 -39.5 -11.5t-15.5 -33.5v-40q0 -23 13 -34t35 -11h29q137 0 137 -145v-5q0 -68 -44 -107q14 -10 22 -34.5t8 -53.5v-10q0 -73 -38 -106.5t-112 -33.5h-124v75
h134q24 0 39.5 11.5t15.5 33.5v40q0 45 -44 45h-33q-137 0 -137 145v5q0 36 12.5 64.5zM207 408.5q-9 -11.5 -9 -33.5v-45q0 -23 13 -36.5t40 -13.5h55q16 0 25.5 11.5t9.5 33.5v45q0 24 -11 37t-41 13h-56q-17 0 -26 -11.5z" />
    <glyph glyph-name="dieresis" unicode="&#xa8;" 
d="M212 675v-80h-85v80h85zM412 675v-80h-85v80h85z" />
    <glyph glyph-name="copyright" unicode="&#xa9;" 
d="M472 43q-43 -43 -120 -43h-164q-77 0 -120 43t-43 127v360q0 84 43 127t120 43h164q77 0 120 -43t43 -127v-360q0 -84 -43 -127zM418.5 610.5q-24.5 25.5 -66.5 25.5h-164q-43 0 -67 -25.5t-24 -58.5v-405q0 -33 24 -58.5t67 -25.5h164q43 0 67 25.5t24 58.5v405
q0 33 -24.5 58.5zM203 180.5q-28 23.5 -28 70.5v198q0 47 28 70.5t80 23.5h75v-51h-80q-21 0 -33.5 -12t-12.5 -30v-200q0 -17 12.5 -29.5t33.5 -12.5h79v-51h-74q-52 0 -80 23.5z" />
    <glyph glyph-name="ordfeminine" unicode="&#xaa;" 
d="M348 329.5q-11 5.5 -19 14.5q-17 -20 -43 -20h-52q-57 0 -83 23.5t-26 78.5v15q0 116 110 116h74v38q0 23 -12.5 33.5t-40.5 10.5h-101v61h94q65 0 96.5 -28.5t31.5 -91.5v-181q0 -12 8.5 -17t28.5 -5v-53h-45q-10 0 -21 5.5zM303 393q6 10 6 27v79h-71q-19 0 -32 -12.5
t-13 -32.5v-32q0 -39 37 -39h44q23 0 29 10zM398 75v-75h-251v75h251z" />
    <glyph glyph-name="guillemotleft" unicode="&#xab;" 
d="M201 506h66l-63 -207l63 -207h-66l-89 207zM361 506h66l-63 -207l63 -207h-66l-89 207z" />
    <glyph glyph-name="logicalnot" unicode="&#xac;" 
d="M62 275v75h415v-244h-85v169h-330z" />
    <glyph glyph-name="uni00AD" unicode="&#xad;" 
d="M432 350v-75h-325v75h325z" />
    <glyph glyph-name="registered" unicode="&#xae;" 
d="M472 43q-43 -43 -120 -43h-164q-77 0 -120 43t-43 127v360q0 84 43 127t120 43h164q77 0 120 -43t43 -127v-360q0 -84 -43 -127zM418.5 610.5q-24.5 25.5 -66.5 25.5h-164q-43 0 -67 -25.5t-24 -58.5v-405q0 -33 24 -58.5t67 -25.5h164q43 0 67 25.5t24 58.5v405
q0 33 -24.5 58.5zM225 317v-158h-56v384h107q104 0 104 -86v-53q0 -62 -54 -78l83 -167h-61l-78 158h-45zM309 487q-10 9 -33 9h-51v-133h51q23 0 33 9.5t10 30.5v54q0 21 -10 30z" />
    <glyph glyph-name="macron" unicode="&#xaf;" 
d="M397 675v-70h-255v70h255z" />
    <glyph glyph-name="degree" unicode="&#xb0;" 
d="M375 427.5q-36 -30.5 -91 -30.5h-28q-55 0 -91 30.5t-36 88.5v66q0 58 35.5 88.5t91.5 30.5h28q56 0 91.5 -30.5t35.5 -88.5v-66q0 -58 -36 -88.5zM325.5 623q-16.5 16 -41.5 16h-28q-25 0 -41.5 -16t-16.5 -38v-72q0 -22 16.5 -38t41.5 -16h28q25 0 41.5 16t16.5 38v72
q0 22 -16.5 38z" />
    <glyph glyph-name="plusminus" unicode="&#xb1;" 
d="M230 143v132h-150v75h150v158h80v-158h150v-75h-150v-132h-80zM460 75v-75h-380v75h380z" />
    <glyph glyph-name="twosuperior" unicode="&#xb2;" 
d="M262 431q33 45 41.5 64t8.5 56v36q0 49 -61 49h-86v64h79q74 0 107.5 -28.5t33.5 -90.5v-23q0 -40 -5 -62.5t-14 -37.5t-35 -50l-103 -139h162v-64h-240v73z" />
    <glyph glyph-name="threesuperior" unicode="&#xb3;" 
d="M351.5 233q-29.5 -28 -97.5 -28h-96v64h93q28 0 42 11.5t14 38.5v55q0 24 -15 38t-40 14h-71v64h63q24 0 39.5 13.5t15.5 38.5v42q0 29 -13 40.5t-42 11.5h-86v64h87q129 0 129 -117v-35q0 -28 -12 -50.5t-32 -36.5q51 -27 51 -92v-45q0 -63 -29.5 -91z" />
    <glyph glyph-name="acute" unicode="&#xb4;" 
d="M376 715l-122 -135h-86l104 135h104z" />
    <glyph glyph-name="mu" unicode="&#xb5;" 
d="M188 500v-360q0 -30 17.5 -47.5t47.5 -17.5h34q33 0 49 17.5t16 37.5v370h85v-500h-80v23q-33 -23 -80 -23h-14q-45 0 -75 10v-180h-85v670h85z" />
    <glyph glyph-name="paragraph" unicode="&#xb6;" 
d="M229 374q-88 0 -127.5 34.5t-39.5 118.5v13q0 85 40 122.5t127 37.5h89v-70h-100q-36 0 -55.5 -19.5t-19.5 -50.5v-53q0 -31 19 -48t56 -17h100v-442h-83v374h-6zM453 700v-700h-80v700h80z" />
    <glyph glyph-name="periodcentered" unicode="&#xb7;" 
d="M320 360v-100h-100v100h100z" />
    <glyph glyph-name="cedilla" unicode="&#xb8;" 
d="M250 -136q33 0 33 31q0 17 -8.5 23t-26.5 6h-49v126h70v-71q46 0 66.5 -17.5t20.5 -66.5q0 -58 -25.5 -76.5t-62.5 -18.5h-85v64h67z" />
    <glyph glyph-name="onesuperior" unicode="&#xb9;" 
d="M245 269v364l-99 -39v68l91 38h82v-431h74v-64h-239v64h91z" />
    <glyph glyph-name="ordmasculine" unicode="&#xba;" 
d="M369 354.5q-31 -28.5 -96 -28.5h-10q-66 0 -97 28.5t-31 91.5v136q0 63 31 91.5t97 28.5h10q65 0 96 -28.5t31 -91.5v-136q0 -63 -31 -91.5zM318 628.5q-14 12.5 -42 12.5h-17q-27 0 -41.5 -12.5t-14.5 -35.5v-158q0 -23 14.5 -35.5t41.5 -12.5h17q28 0 42 12.5t14 35.5
v158q0 23 -14 35.5zM408 75v-75h-276v75h276z" />
    <glyph glyph-name="guillemotright" unicode="&#xbb;" 
d="M112 506h66l89 -207l-89 -207h-66l63 207zM272 506h66l89 -207l-89 -207h-66l63 207z" />
    <glyph glyph-name="onequarter" unicode="&#xbc;" 
d="M375 810h74l-256 -920h-74zM77 269v361l-66 -39v71l68 38h72v-431h34v-64h-156v64h48zM428 0v117h-101v74l54 304h69l-62 -314h36l27 143h47v-143h30v-64h-30v-117h-70z" />
    <glyph glyph-name="onehalf" unicode="&#xbd;" 
d="M365 810h88l-256 -920h-74zM77 269v361l-66 -39v71l68 38h72v-431h34v-64h-156v64h48zM443 246q9 20 11.5 37.5t2.5 62.5v46q0 39 -41 39h-36v64h29q49 0 75 -10.5t36 -34t10 -64.5v-33q0 -67 -3 -91t-15 -46l-71 -152h94v-64h-170v73z" />
    <glyph glyph-name="threequarters" unicode="&#xbe;" 
d="M369 810h74l-256 -920h-74zM171 232.5q-27 -27.5 -94 -27.5h-56v62h53q27 0 40.5 11.5t13.5 38.5v59q0 24 -14.5 38t-38.5 14h-31v60h23q24 0 38.5 13.5t14.5 38.5v46q0 29 -12 40.5t-41 11.5h-46v62h47q63 0 93 -28t30 -89v-35q0 -28 -12 -50.5t-32 -36.5q51 -27 51 -92
v-45q0 -64 -27 -91.5zM428 0v117h-101v74l54 304h69l-62 -314h36l27 143h47v-143h30v-64h-30v-117h-70z" />
    <glyph glyph-name="questiondown" unicode="&#xbf;" 
d="M247 400v100h100v-100h-100zM135 44.5q4 20.5 18 41t49 56.5l53 54v96h85v-121l-58 -61q-32 -33 -45 -50.5t-17 -31t-4 -37.5v-50q0 -31 18 -48t55 -17h125v-76h-115q-168 0 -168 150v32q0 42 4 62.5z" />
    <glyph glyph-name="Agrave" unicode="&#xc0;" 
d="M253 841l104 -115h-83l-132 115h111zM173 177l-39 -177h-89l169 700h115l166 -700h-89l-38 177h-195zM352 252l-82 382l-81 -382h163z" />
    <glyph glyph-name="Aacute" unicode="&#xc1;" 
d="M396 841l-132 -115h-83l104 115h111zM173 177l-39 -177h-89l169 700h115l166 -700h-89l-38 177h-195zM352 252l-82 382l-89 -382h171z" />
    <glyph glyph-name="Acircumflex" unicode="&#xc2;" 
d="M209 730h-96l110 115h92l111 -115h-97l-60 64zM173 177l-39 -177h-89l169 700h115l166 -700h-89l-38 177h-195zM352 252l-82 382l-81 -382h163z" />
    <glyph glyph-name="Atilde" unicode="&#xc3;" 
d="M172 826q28 14 40 14h15q8 0 24 -6t33 -14q42 -20 54 -20h10q8 0 33 15t34 21v-72q-8 -5 -32.5 -19t-35.5 -14h-15q-5 0 -45 17q-52 23 -65 23h-10q-9 0 -38 -15t-39 -21v72q9 5 37 19zM173 177l-39 -177h-89l169 700h115l166 -700h-89l-38 177h-195zM352 252l-82 382
l-81 -382h163z" />
    <glyph glyph-name="Adieresis" unicode="&#xc4;" 
d="M217 815v-80h-85v80h85zM406 815l11 -80h-85v80h74zM173 177l-39 -177h-89l169 700h115l166 -700h-89l-38 177h-195zM352 252l-82 382l-81 -382h163z" />
    <glyph glyph-name="Aring" unicode="&#xc5;" 
d="M335 675l160 -675h-89l-38 177h-195l-39 -177h-89l163 674q-29 23 -29 67v29q0 42 24.5 63.5t64.5 21.5h6q40 0 64.5 -21.5t24.5 -63.5v-29q-2 -45 -28 -66zM274 809h-6q-18 0 -26 -10.5t-8 -27.5v-31q0 -17 8 -27.5t26 -10.5h6q32 0 32 38v31q0 38 -32 38zM352 252
l-82 382l-81 -382h163z" />
    <glyph glyph-name="AE" unicode="&#xc6;" 
d="M141 177l-42 -177h-84l176 700h307v-73h-173l23 -229h145v-73h-137l25 -252h137v-73h-211l-15 177h-151zM247 627l-88 -375h124z" />
    <glyph glyph-name="Ccedilla" unicode="&#xc7;" 
d="M303 -136q33 0 33 31q0 17 -8.5 23t-26.5 6h-49v78q-70 8 -106.5 50.5t-36.5 117.5v360q0 85 46.5 127.5t133.5 42.5h142v-76h-152q-37 0 -60 -22t-23 -53v-398q0 -31 23 -53t60 -22h152v-76h-109v-21q46 0 66.5 -17.5t20.5 -66.5q0 -58 -25.5 -76.5t-62.5 -18.5h-85v64
h67z" />
    <glyph glyph-name="Egrave" unicode="&#xc8;" 
d="M248 841l104 -115h-83l-132 115h111zM437 700v-73h-247v-229h222v-73h-222v-252h247v-73h-334v700h334z" />
    <glyph glyph-name="Eacute" unicode="&#xc9;" 
d="M397 841l-132 -115h-83l104 115h111zM437 700v-73h-247v-229h222v-73h-222v-252h247v-73h-334v700h334z" />
    <glyph glyph-name="Ecircumflex" unicode="&#xca;" 
d="M210 730h-96l110 115h92l111 -115h-97l-60 64zM437 700v-73h-247v-229h222v-73h-222v-252h247v-73h-334v700h334z" />
    <glyph glyph-name="Edieresis" unicode="&#xcb;" 
d="M212 815v-80h-85v80h85zM412 815v-80h-85v80h85zM437 700v-73h-247v-229h222v-73h-222v-252h247v-73h-334v700h334z" />
    <glyph glyph-name="Igrave" unicode="&#xcc;" 
d="M247 841l104 -115h-83l-132 115h111zM229 73v554h-90v73h267v-73h-90v-554h90v-73h-267v73h90z" />
    <glyph glyph-name="Iacute" unicode="&#xcd;" 
d="M392 841l-132 -115h-83l104 115h111zM226 73v554h-90v73h267v-73h-90v-554h90v-73h-267v73h90z" />
    <glyph glyph-name="Icircumflex" unicode="&#xce;" 
d="M210 730h-96l110 115h92l111 -115h-97l-60 64zM227 73v554h-90v73h267v-73h-90v-554h90v-73h-267v73h90z" />
    <glyph glyph-name="Idieresis" unicode="&#xcf;" 
d="M213 815v-80h-85v80h85zM413 815v-80h-85v80h85zM226 73v554h-90v73h267v-73h-90v-554h90v-73h-267v73h90z" />
    <glyph glyph-name="Eth" unicode="&#xd0;" 
d="M427.5 36q-39.5 -36 -130.5 -36h-206v325h-57v75h57v300h194q90 0 136 -36.5t46 -119.5v-386q0 -86 -39.5 -122zM360 605.5q-20 19.5 -53 19.5h-129v-225h116v-75h-116v-250h128q38 0 56 17.5t18 55.5v405q0 33 -20 52.5z" />
    <glyph glyph-name="Ntilde" unicode="&#xd1;" 
d="M170 826q28 14 40 14h15q8 0 24 -6t33 -14q42 -20 54 -20h10q8 0 33 15t34 21v-72q-8 -5 -32.5 -19t-35.5 -14h-15q-5 0 -45 17q-52 23 -65 23h-10q-9 0 -38 -15t-39 -21v72q9 5 37 19zM160 0h-81v700h142l158 -626v626h81v-700h-143l-157 626v-626z" />
    <glyph glyph-name="Ograve" unicode="&#xd2;" 
d="M247 841l104 -115h-83l-132 115h111zM423.5 42.5q-46.5 -42.5 -133.5 -42.5h-40q-87 0 -133.5 42.5t-46.5 127.5v360q0 85 46.5 127.5t133.5 42.5h40q87 0 133.5 -42.5t46.5 -127.5v-360q0 -85 -46.5 -127.5zM360 602q-23 22 -60 22h-60q-37 0 -60 -22t-23 -53v-398
q0 -31 23 -53t60 -22h60q37 0 60 22t23 53v398q0 31 -23 53z" />
    <glyph glyph-name="Oacute" unicode="&#xd3;" 
d="M399 841l-132 -115h-83l104 115h111zM423.5 42.5q-46.5 -42.5 -133.5 -42.5h-40q-87 0 -133.5 42.5t-46.5 127.5v360q0 85 46.5 127.5t133.5 42.5h40q87 0 133.5 -42.5t46.5 -127.5v-360q0 -85 -46.5 -127.5zM360 602q-23 22 -60 22h-60q-37 0 -60 -22t-23 -53v-398
q0 -31 23 -53t60 -22h60q37 0 60 22t23 53v398q0 31 -23 53z" />
    <glyph glyph-name="Ocircumflex" unicode="&#xd4;" 
d="M209 730h-96l110 115h92l111 -115h-97l-60 64zM423.5 42.5q-46.5 -42.5 -133.5 -42.5h-40q-87 0 -133.5 42.5t-46.5 127.5v360q0 85 46.5 127.5t133.5 42.5h40q87 0 133.5 -42.5t46.5 -127.5v-360q0 -85 -46.5 -127.5zM360 602q-23 22 -60 22h-60q-37 0 -60 -22t-23 -53
v-398q0 -31 23 -53t60 -22h60q37 0 60 22t23 53v398q0 31 -23 53z" />
    <glyph glyph-name="Otilde" unicode="&#xd5;" 
d="M169 826q28 14 40 14h15q8 0 24 -6t33 -14q42 -20 54 -20h10q7 0 32.5 15t34.5 21v-72q-8 -5 -32.5 -19t-35.5 -14h-15q-5 0 -45 17q-52 23 -65 23h-10q-9 0 -38 -15t-39 -21v72q9 5 37 19zM423.5 42.5q-46.5 -42.5 -133.5 -42.5h-40q-87 0 -133.5 42.5t-46.5 127.5v360
q0 85 46.5 127.5t133.5 42.5h40q87 0 133.5 -42.5t46.5 -127.5v-360q0 -85 -46.5 -127.5zM360 602q-23 22 -60 22h-60q-37 0 -60 -22t-23 -53v-398q0 -31 23 -53t60 -22h60q37 0 60 22t23 53v398q0 31 -23 53z" />
    <glyph glyph-name="Odieresis" unicode="&#xd6;" 
d="M216 815v-80h-85v80h85zM416 815v-80h-85v80h85zM423.5 42.5q-46.5 -42.5 -133.5 -42.5h-40q-87 0 -133.5 42.5t-46.5 127.5v360q0 85 46.5 127.5t133.5 42.5h40q87 0 133.5 -42.5t46.5 -127.5v-360q0 -85 -46.5 -127.5zM360 602q-23 22 -60 22h-60q-37 0 -60 -22
t-23 -53v-398q0 -31 23 -53t60 -22h60q37 0 60 22t23 53v398q0 31 -23 53z" />
    <glyph glyph-name="multiply" unicode="&#xd7;" 
d="M97 193l116 117l-116 117l56 56l117 -116l117 116l56 -56l-116 -117l116 -117l-56 -56l-117 116l-117 -116z" />
    <glyph glyph-name="Oslash" unicode="&#xd8;" 
d="M423.5 42.5q-46.5 -42.5 -133.5 -42.5h-40q-27 0 -39 2l-26 -93h-76l32 115q-71 42 -71 146v360q0 85 46.5 127.5t133.5 42.5h40q13 0 37 -2l26 93h76l-32 -115q73 -40 73 -146v-360q0 -85 -46.5 -127.5zM166 116l140 508h-66q-37 0 -60 -22t-23 -53v-398q0 -20 9 -35z
M372 586l-141 -510h69q37 0 60 22t23 53v398q0 20 -11 37z" />
    <glyph glyph-name="Ugrave" unicode="&#xd9;" 
d="M227 841l104 -115h-83l-132 115h111zM415.5 42.5q-46.5 -42.5 -133.5 -42.5h-25q-87 0 -133.5 42.5t-46.5 127.5v530h87v-549q0 -31 23 -53t60 -22h45q37 0 60 22t23 53v549h87v-530q0 -85 -46.5 -127.5z" />
    <glyph glyph-name="Uacute" unicode="&#xda;" 
d="M426 841l-132 -115h-83l104 115h111zM415.5 42.5q-46.5 -42.5 -133.5 -42.5h-25q-87 0 -133.5 42.5t-46.5 127.5v530h87v-549q0 -31 23 -53t60 -22h45q37 0 60 22t23 53v549h87v-530q0 -85 -46.5 -127.5z" />
    <glyph glyph-name="Ucircumflex" unicode="&#xdb;" 
d="M214 730h-96l110 115h92l111 -115h-97l-60 64zM415.5 42.5q-46.5 -42.5 -133.5 -42.5h-25q-87 0 -133.5 42.5t-46.5 127.5v530h87v-549q0 -31 23 -53t60 -22h45q37 0 60 22t23 53v549h87v-530q0 -85 -46.5 -127.5z" />
    <glyph glyph-name="Udieresis" unicode="&#xdc;" 
d="M214 815v-80h-85v80h85zM414 815v-80h-85v80h85zM415.5 42.5q-46.5 -42.5 -133.5 -42.5h-25q-87 0 -133.5 42.5t-46.5 127.5v530h87v-549q0 -31 23 -53t60 -22h45q37 0 60 22t23 53v549h87v-530q0 -85 -46.5 -127.5z" />
    <glyph glyph-name="Yacute" unicode="&#xdd;" 
d="M401 841l-132 -115h-83l104 115h111zM223 0v325l-179 375h96l132 -291l132 291h91l-182 -375v-325h-90z" />
    <glyph glyph-name="Thorn" unicode="&#xde;" 
d="M412 180.5q-43 -38.5 -127 -38.5h-104v-142h-87v700h87v-130h102q85 0 128.5 -37.5t43.5 -118.5v-114q0 -81 -43 -119.5zM350.5 478q-17.5 17 -55.5 17h-114v-278h114q38 0 55.5 17.5t17.5 55.5v133q0 38 -17.5 55z" />
    <glyph glyph-name="germandbls" unicode="&#xdf;" 
d="M121 665q43 35 107 35h39q88 0 129 -37.5t41 -122.5v-125h-78q-30 0 -42.5 -11t-12.5 -34v-15q0 -23 11.5 -34t31.5 -11q55 0 87 -32t32 -88v-65q0 -56 -35 -90.5t-103 -34.5h-112v75h118q47 0 47 45v70q0 22 -10.5 33.5t-35.5 11.5q-51 0 -83.5 33t-32.5 88v10
q0 64 34 90.5t99 29.5v74q0 31 -19 48t-56 17h-54q-33 0 -46.5 -17t-13.5 -38v-570h-85v560q0 70 43 105z" />
    <glyph glyph-name="agrave" unicode="&#xe0;" 
d="M238 715l104 -135h-86l-122 135h104zM388.5 8q-15.5 8 -26.5 22q-23 -30 -61 -30h-89q-76 0 -110.5 30.5t-34.5 104.5v20q0 155 146 155h124v50q0 31 -19 48t-56 17h-155v75h145q87 0 128.5 -38t41.5 -122v-240q0 -15 11.5 -22.5t38.5 -7.5v-70h-55q-13 0 -28.5 8z
M329 89q8 14 8 36v110h-125q-26 0 -43 -17t-17 -43v-50q0 -26 12 -38t38 -12h89q30 0 38 14z" />
    <glyph glyph-name="aacute" unicode="&#xe1;" 
d="M410 715l-122 -135h-86l104 135h104zM388.5 8q-15.5 8 -26.5 22q-23 -30 -61 -30h-89q-76 0 -110.5 30.5t-34.5 104.5v20q0 155 146 155h124v50q0 31 -19 48t-56 17h-155v75h145q87 0 128.5 -38t41.5 -122v-240q0 -15 11.5 -22.5t38.5 -7.5v-70h-55q-13 0 -28.5 8z
M329 89q8 14 8 36v110h-125q-26 0 -43 -17t-17 -43v-50q0 -26 12 -38t38 -12h89q30 0 38 14z" />
    <glyph glyph-name="acircumflex" unicode="&#xe2;" 
d="M194 580h-96l112 135h88l113 -135h-97l-60 75zM388.5 8q-15.5 8 -26.5 22q-23 -30 -61 -30h-89q-76 0 -110.5 30.5t-34.5 104.5v20q0 155 146 155h124v50q0 31 -19 48t-56 17h-155v75h145q87 0 128.5 -38t41.5 -122v-240q0 -15 11.5 -22.5t38.5 -7.5v-70h-55
q-13 0 -28.5 8zM329 89q8 14 8 36v110h-125q-26 0 -43 -17t-17 -43v-50q0 -26 12 -38t38 -12h89q30 0 38 14z" />
    <glyph glyph-name="atilde" unicode="&#xe3;" 
d="M143 686q28 14 40 14h15q8 0 24 -6t33 -14q42 -20 54 -20h10q8 0 33 15t34 21v-72q-8 -5 -32.5 -19t-35.5 -14h-15q-5 0 -45 17q-52 23 -65 23h-10q-9 0 -38 -15t-39 -21v72q9 5 37 19zM388.5 8q-15.5 8 -26.5 22q-23 -30 -61 -30h-89q-76 0 -110.5 30.5t-34.5 104.5v20
q0 155 146 155h124v50q0 31 -19 48t-56 17h-155v75h145q87 0 128.5 -38t41.5 -122v-240q0 -15 11.5 -22.5t38.5 -7.5v-70h-55q-13 0 -28.5 8zM329 89q8 14 8 36v110h-125q-26 0 -43 -17t-17 -43v-50q0 -26 12 -38t38 -12h89q30 0 38 14z" />
    <glyph glyph-name="adieresis" unicode="&#xe4;" 
d="M191 675v-80h-85v80h85zM391 675v-80h-85v80h85zM388.5 8q-15.5 8 -26.5 22q-23 -30 -61 -30h-89q-76 0 -110.5 30.5t-34.5 104.5v20q0 155 146 155h124v50q0 31 -19 48t-56 17h-155v75h145q87 0 128.5 -38t41.5 -122v-240q0 -15 11.5 -22.5t38.5 -7.5v-70h-55
q-13 0 -28.5 8zM329 89q8 14 8 36v110h-125q-26 0 -43 -17t-17 -43v-50q0 -26 12 -38t38 -12h89q30 0 38 14z" />
    <glyph glyph-name="aring" unicode="&#xe5;" 
d="M319 570q-25 -22 -64 -22h-6q-39 0 -64 22t-25 63v29q0 42 24.5 63.5t64.5 21.5h6q40 0 64.5 -21.5t24.5 -63.5v-29q0 -41 -25 -63zM255 701h-6q-18 0 -26 -10.5t-8 -27.5v-31q0 -17 8 -27.5t26 -10.5h6q32 0 32 38v31q0 38 -32 38zM388.5 8q-15.5 8 -26.5 22
q-23 -30 -61 -30h-89q-76 0 -110.5 30.5t-34.5 104.5v20q0 155 146 155h124v50q0 31 -19 48t-56 17h-155v75h145q87 0 128.5 -38t41.5 -122v-240q0 -15 11.5 -22.5t38.5 -7.5v-70h-55q-13 0 -28.5 8zM329 89q8 14 8 36v110h-125q-26 0 -43 -17t-17 -43v-50q0 -26 12 -38
t38 -12h89q30 0 38 14z" />
    <glyph glyph-name="ae" unicode="&#xe6;" 
d="M316.5 11q-29.5 11 -43.5 36q-11 -20 -36 -33.5t-63 -13.5h-14q-67 0 -101 31.5t-34 103.5v12q0 77 34 116t107 39h66v58q0 32 -15.5 48.5t-51.5 16.5h-105v75h95q45 0 71 -9t49 -28q21 20 41.5 28.5t58.5 8.5h7q70 0 102 -39t32 -116v-116h-201v-97q3 -59 70 -59h99v-73
h-89q-49 0 -78.5 11zM435 367q0 27 -13.5 43.5t-38.5 16.5h-8q-35 0 -47.5 -16t-12.5 -49v-60h120v65zM122.5 211.5q-14.5 -17.5 -14.5 -44.5v-44q0 -26 12 -38t38 -12h26q30 0 39 14t9 36v106h-69q-26 0 -40.5 -17.5z" />
    <glyph glyph-name="ccedilla" unicode="&#xe7;" 
d="M293 -136q33 0 33 31q0 17 -8.5 23t-26.5 6h-49v79q-62 9 -92 46.5t-30 110.5v180q0 84 41.5 122t128.5 38h129v-75h-139q-37 0 -56 -17t-19 -48v-220q0 -31 19 -48t56 -17h139v-75h-107v-21q46 0 66.5 -17.5t20.5 -66.5q0 -58 -25.5 -76.5t-62.5 -18.5h-85v64h67z" />
    <glyph glyph-name="egrave" unicode="&#xe8;" 
d="M261 715l104 -135h-86l-122 135h104zM135 37.5q-41 37.5 -41 122.5v180q0 86 37 123t123 37h47q71 0 107.5 -39.5t36.5 -115.5v-130h-266v-75q0 -31 19 -48t56 -17h159v-75h-149q-88 0 -129 37.5zM362 365q0 26 -17 43t-43 17h-58q-36 0 -50.5 -16.5t-14.5 -48.5v-70h183
v75z" />
    <glyph glyph-name="eacute" unicode="&#xe9;" 
d="M426 715l-122 -135h-86l104 135h104zM135 37.5q-41 37.5 -41 122.5v180q0 86 37 123t123 37h47q71 0 107.5 -39.5t36.5 -115.5v-130h-266v-75q0 -31 19 -48t56 -17h159v-75h-149q-88 0 -129 37.5zM362 365q0 26 -17 43t-43 17h-58q-36 0 -50.5 -16.5t-14.5 -48.5v-70h183
v75z" />
    <glyph glyph-name="ecircumflex" unicode="&#xea;" 
d="M211 580h-96l112 135h88l113 -135h-97l-60 75zM135 37.5q-41 37.5 -41 122.5v180q0 86 37 123t123 37h47q71 0 107.5 -39.5t36.5 -115.5v-130h-266v-75q0 -31 19 -48t56 -17h159v-75h-149q-88 0 -129 37.5zM362 365q0 26 -17 43t-43 17h-58q-36 0 -50.5 -16.5
t-14.5 -48.5v-70h183v75z" />
    <glyph glyph-name="edieresis" unicode="&#xeb;" 
d="M218 675v-80h-85v80h85zM418 675v-80h-85v80h85zM135 37.5q-41 37.5 -41 122.5v180q0 86 37 123t123 37h47q71 0 107.5 -39.5t36.5 -115.5v-130h-266v-75q0 -31 19 -48t56 -17h159v-75h-149q-88 0 -129 37.5zM362 365q0 26 -17 43t-43 17h-58q-36 0 -50.5 -16.5
t-14.5 -48.5v-70h183v75z" />
    <glyph glyph-name="igrave" unicode="&#xec;" 
d="M253 715l104 -135h-86l-122 135h104zM80 425v75h232v-425h148v-75h-233v425h-147z" />
    <glyph glyph-name="iacute" unicode="&#xed;" 
d="M413 715l-122 -135h-86l104 135h104zM80 425v75h232v-425h148v-75h-233v425h-147z" />
    <glyph glyph-name="icircumflex" unicode="&#xee;" 
d="M213 580h-96l112 135h88l113 -135h-97l-60 75zM80 425v75h232v-425h148v-75h-233v425h-147z" />
    <glyph glyph-name="idieresis" unicode="&#xef;" 
d="M213 675v-80h-85v80h85zM413 675v-80h-85v80h85zM80 425v75h232v-425h148v-75h-233v425h-147z" />
    <glyph glyph-name="eth" unicode="&#xf0;" 
d="M223 626h-76v74h119l30 50h82l-36 -60q103 -32 103 -160v-360q0 -82 -45 -126t-113 -44h-35q-68 0 -113 44t-45 126v130q0 84 41 122t127 38h98v89q0 25 -15.5 45.5t-41.5 27.5l-33 -56h-82zM197.5 367.5q-18.5 -17.5 -18.5 -48.5v-168q0 -32 21 -54t57 -22h25
q36 0 57 22t21 54v234h-108q-36 0 -54.5 -17.5z" />
    <glyph glyph-name="ntilde" unicode="&#xf1;" 
d="M174 686q28 14 40 14h15q8 0 24 -6t33 -14q42 -20 54 -20h10q7 0 32.5 15t34.5 21v-72q-8 -5 -32.5 -19t-35.5 -14h-15q-5 0 -45 17q-52 23 -65 23h-10q-9 0 -38 -15t-39 -21v72q9 5 37 19zM167 500v-24q31 24 80 24h46q81 0 120.5 -38t39.5 -122v-340h-85v360
q0 30 -17.5 47.5t-47.5 17.5h-66q-33 0 -49 -17.5t-16 -37.5v-370h-85v500h80z" />
    <glyph glyph-name="ograve" unicode="&#xf2;" 
d="M261 715l104 -135h-86l-122 135h104zM410.5 38q-41.5 -38 -128.5 -38h-33q-87 0 -128.5 38t-41.5 122v180q0 84 41.5 122t128.5 38h33q87 0 128.5 -38t41.5 -122v-180q0 -84 -41.5 -122zM348 408q-19 17 -56 17h-53q-37 0 -56 -17t-19 -48v-220q0 -31 19 -48t56 -17h53
q37 0 56 17t19 48v220q0 31 -19 48z" />
    <glyph glyph-name="oacute" unicode="&#xf3;" 
d="M377 715l-122 -135h-86l104 135h104zM414.5 38q-41.5 -38 -128.5 -38h-33q-87 0 -128.5 38t-41.5 122v180q0 84 41.5 122t128.5 38h33q87 0 128.5 -38t41.5 -122v-180q0 -84 -41.5 -122zM352 408q-19 17 -56 17h-53q-37 0 -56 -17t-19 -48v-220q0 -31 19 -48t56 -17h53
q37 0 56 17t19 48v220q0 31 -19 48z" />
    <glyph glyph-name="ocircumflex" unicode="&#xf4;" 
d="M210 580h-96l112 135h88l113 -135h-97l-60 75zM414.5 38q-41.5 -38 -128.5 -38h-33q-87 0 -128.5 38t-41.5 122v180q0 84 41.5 122t128.5 38h33q87 0 128.5 -38t41.5 -122v-180q0 -84 -41.5 -122zM352 408q-19 17 -56 17h-53q-37 0 -56 -17t-19 -48v-220q0 -31 19 -48
t56 -17h53q37 0 56 17t19 48v220q0 31 -19 48z" />
    <glyph glyph-name="otilde" unicode="&#xf5;" 
d="M167 686q28 14 40 14h15q8 0 24 -6t33 -14q42 -20 54 -20h10q8 0 33 15t34 21v-72q-8 -5 -32.5 -19t-35.5 -14h-15q-5 0 -45 17q-52 23 -65 23h-10q-9 0 -38 -15t-39 -21v72q9 5 37 19zM414.5 38q-41.5 -38 -128.5 -38h-33q-87 0 -128.5 38t-41.5 122v180q0 84 41.5 122
t128.5 38h33q87 0 128.5 -38t41.5 -122v-180q0 -84 -41.5 -122zM352 408q-19 17 -56 17h-53q-37 0 -56 -17t-19 -48v-220q0 -31 19 -48t56 -17h53q37 0 56 17t19 48v220q0 31 -19 48z" />
    <glyph glyph-name="odieresis" unicode="&#xf6;" 
d="M213 675v-80h-85v80h85zM413 675v-80h-85v80h85zM414.5 38q-41.5 -38 -128.5 -38h-33q-87 0 -128.5 38t-41.5 122v180q0 84 41.5 122t128.5 38h33q87 0 128.5 -38t41.5 -122v-180q0 -84 -41.5 -122zM352 408q-19 17 -56 17h-53q-37 0 -56 -17t-19 -48v-220q0 -31 19 -48
t56 -17h53q37 0 56 17t19 48v220q0 31 -19 48z" />
    <glyph glyph-name="divide" unicode="&#xf7;" 
d="M320 560v-100h-100v100h100zM460 350v-75h-380v75h380zM320 165v-100h-100v100h100z" />
    <glyph glyph-name="oslash" unicode="&#xf8;" 
d="M414.5 38q-41.5 -38 -128.5 -38h-53l-27 -89h-78l31 104q-38 17 -57 52.5t-19 92.5v180q0 84 41.5 122t128.5 38h33q14 0 20 -1l28 90h77l-32 -105q39 -17 58 -52t19 -92v-180q0 -84 -41.5 -122zM183 95l101 330h-41q-37 0 -56 -17t-19 -48v-220q0 -28 15 -45zM355 404
l-100 -329h41q37 0 56 17t19 48v220q0 28 -16 44z" />
    <glyph glyph-name="ugrave" unicode="&#xf9;" 
d="M239 715l104 -135h-86l-122 135h104zM287 0h-34q-81 0 -120.5 38t-39.5 122v340h85v-360q0 -30 17.5 -47.5t47.5 -17.5h54q32 0 47.5 16t17.5 36v373h85v-500h-80v23q-33 -23 -80 -23z" />
    <glyph glyph-name="uacute" unicode="&#xfa;" 
d="M425 715l-122 -135h-86l104 135h104zM287 0h-34q-81 0 -120.5 38t-39.5 122v340h85v-360q0 -30 17.5 -47.5t47.5 -17.5h54q32 0 47.5 16t17.5 36v373h85v-500h-80v23q-33 -23 -80 -23z" />
    <glyph glyph-name="ucircumflex" unicode="&#xfb;" 
d="M209 580h-96l112 135h88l113 -135h-97l-60 75zM287 0h-34q-81 0 -120.5 38t-39.5 122v340h85v-360q0 -30 17.5 -47.5t47.5 -17.5h54q32 0 47.5 16t17.5 36v373h85v-500h-80v23q-33 -23 -80 -23z" />
    <glyph glyph-name="udieresis" unicode="&#xfc;" 
d="M210 675v-80h-85v80h85zM410 675v-80h-85v80h85zM287 0h-34q-81 0 -120.5 38t-39.5 122v340h85v-360q0 -30 17.5 -47.5t47.5 -17.5h54q32 0 47.5 16t17.5 36v373h85v-500h-80v23q-33 -23 -80 -23z" />
    <glyph glyph-name="yacute" unicode="&#xfd;" 
d="M403 715l-122 -135h-86l104 135h104zM216 -86q12 9 18 31l14 55h-20l-165 500h92l125 -419l109 419h87l-155 -554q-13 -51 -32 -76t-42.5 -32.5t-60.5 -7.5h-48v75h42q24 0 36 9z" />
    <glyph glyph-name="thorn" unicode="&#xfe;" 
d="M412 462.5q41 -37.5 41 -122.5v-180q0 -84 -41.5 -122t-128.5 -38h-101v-170h-85v870h85v-220q31 20 75 20h26q88 0 129 -37.5zM349 408q-19 17 -56 17h-46q-33 0 -49 -17.5t-16 -37.5v-295h111q37 0 56 17t19 48v220q0 31 -19 48z" />
    <glyph glyph-name="ydieresis" unicode="&#xff;" 
d="M212 675v-80h-85v80h85zM412 675v-80h-85v80h85zM216 -86q12 9 18 31l14 55h-20l-165 500h92l125 -419l109 419h87l-155 -554q-13 -51 -32 -76t-42.5 -32.5t-60.5 -7.5h-48v75h42q24 0 36 9z" />
    <glyph glyph-name="dotlessi" unicode="&#x131;" 
d="M80 425v75h232v-425h148v-75h-233v425h-147z" />
    <glyph glyph-name="Lslash" unicode="&#x141;" 
d="M75 300v80l90 43v277h87v-235l113 55v-80l-113 -55v-309h223v-76h-310v343z" />
    <glyph glyph-name="lslash" unicode="&#x142;" 
d="M242.5 24q-25.5 24 -25.5 76v223l-82 -23v78l82 24v223h-147v75h232v-274l104 31v-79l-104 -30v-243q0 -16 8 -23t27 -7h133v-75h-168q-34 0 -59.5 24z" />
    <glyph glyph-name="OE" unicode="&#x152;" 
d="M72.5 42.5q-46.5 42.5 -46.5 127.5v360q0 85 46.5 127.5t133.5 42.5h317v-73h-176q24 -45 24 -97v-132h137v-73h-137v-155q0 -54 -24 -97h176v-73h-317q-87 0 -133.5 42.5zM261 602q-23 22 -60 22h-5q-37 0 -60 -22t-23 -53v-398q0 -31 23 -53t60 -22h5q37 0 60 22t23 53
v398q0 31 -23 53z" />
    <glyph glyph-name="oe" unicode="&#x153;" 
d="M322.5 9.5q-26.5 9.5 -42.5 29.5q-18 -20 -40 -29.5t-64 -9.5h-3q-78 0 -112.5 37t-34.5 118v190q0 84 34.5 119.5t112.5 35.5h3q39 0 60.5 -10t41.5 -29q16 19 40.5 29t64.5 10h1q68 0 100 -35t32 -110v-140h-193v-77q0 -31 18 -48t54 -17h94v-73h-92q-48 0 -74.5 9.5z
M186 427h-23q-54 0 -54 -65v-224q0 -32 12.5 -48.5t41.5 -16.5h23q29 0 41.5 16.5t12.5 48.5v224q0 65 -54 65zM435 367q0 29 -11.5 44.5t-40.5 15.5h-3q-34 0 -45.5 -16t-11.5 -49v-74h112v79z" />
    <glyph glyph-name="Scaron" unicode="&#x160;" 
d="M343 845h96l-112 -115h-88l-113 115h97l60 -67zM392.5 42.5q-46.5 -42.5 -133.5 -42.5h-142v76h152q37 0 60 22t23 53v104q0 30 -15.5 48.5t-46.5 18.5h-30q-74 0 -117 43.5t-43 126.5v38q0 85 46.5 127.5t133.5 42.5h143v-76h-153q-37 0 -60 -22t-23 -53v-76
q0 -31 20 -51.5t52 -20.5h30q71 0 110.5 -41t39.5 -124v-66q0 -85 -46.5 -127.5z" />
    <glyph glyph-name="scaron" unicode="&#x161;" 
d="M336 714h96l-112 -135h-88l-113 135h97l60 -75zM376.5 31q-38.5 -31 -111.5 -31h-149v75h159q27 0 41 11.5t14 33.5v53q0 45 -43 45h-37q-70 0 -104.5 30.5t-34.5 96.5v29q0 67 38 96.5t112 29.5h134v-75h-144q-25 0 -40 -11.5t-15 -33.5v-36q0 -23 13.5 -34t34.5 -11h34
q67 0 102 -32.5t35 -96.5v-45q0 -63 -38.5 -94z" />
    <glyph glyph-name="Ydieresis" unicode="&#x178;" 
d="M213 815v-80h-85v80h85zM413 815v-80h-85v80h85zM223 0v325l-179 375h96l132 -291l132 291h91l-182 -375v-325h-90z" />
    <glyph glyph-name="Zcaron" unicode="&#x17d;" 
d="M346 845h96l-112 -115h-88l-113 115h97l60 -67zM441 0h-354v88l274 538h-251v74h341v-88l-273 -538h263v-74z" />
    <glyph glyph-name="zcaron" unicode="&#x17e;" 
d="M406 714h96l-112 -135h-88l-113 135h97l60 -75zM485 0h-318v80l234 346h-214v74h308v-89l-232 -337h222v-74z" />
    <glyph glyph-name="florin" unicode="&#x192;" 
d="M319.5 616.5q-9.5 -8.5 -9.5 -21.5v-95h161v-75h-161v-485q0 -51 -29 -80.5t-75 -29.5h-127v75h111q16 0 25.5 8.5t9.5 21.5v490h-85v75h85v90q0 51 29 80.5t75 29.5h152v-75h-136q-16 0 -25.5 -8.5z" />
    <glyph glyph-name="circumflex" unicode="&#x2c6;" 
d="M209 580h-96l112 135h88l113 -135h-97l-60 75z" />
    <glyph glyph-name="caron" unicode="&#x2c7;" 
d="M330 714h96l-112 -135h-88l-113 135h97l60 -75z" />
    <glyph glyph-name="uni02C9" unicode="&#x2c9;" 
d="M397 675v-70h-255v70h255z" />
    <glyph glyph-name="breve" unicode="&#x2d8;" 
d="M320 666q10 17 10 49h82q0 -51 -30.5 -90.5t-101.5 -39.5h-20q-71 0 -101.5 39.5t-30.5 90.5h82q0 -32 10 -49t40 -17h20q30 0 40 17z" />
    <glyph glyph-name="dotaccent" unicode="&#x2d9;" 
d="M312 700v-85h-85v85h85z" />
    <glyph glyph-name="ring" unicode="&#x2da;" 
d="M337 570q-25 -22 -64 -22h-6q-39 0 -64 22t-25 63v29q0 42 24.5 63.5t64.5 21.5h6q40 0 64.5 -21.5t24.5 -63.5v-29q0 -41 -25 -63zM273 701h-6q-18 0 -26 -10.5t-8 -27.5v-31q0 -17 8 -27.5t26 -10.5h6q32 0 32 38v31q0 38 -32 38z" />
    <glyph glyph-name="ogonek" unicode="&#x2db;" 
d="M206.5 -161.5q-25.5 18.5 -25.5 76.5v145h74v-145q0 -16 7.5 -22t24.5 -6h71v-67h-89q-37 0 -62.5 18.5z" />
    <glyph glyph-name="tilde" unicode="&#x2dc;" 
d="M167 686q28 14 40 14h15q8 0 24 -6t33 -14q42 -20 54 -20h10q8 0 33 15t34 21v-72q-8 -5 -32.5 -19t-35.5 -14h-15q-5 0 -45 17q-52 23 -65 23h-10q-9 0 -38 -15t-39 -21v72q9 5 37 19z" />
    <glyph glyph-name="hungarumlaut" unicode="&#x2dd;" 
d="M180 745h115l-127 -147h-91zM350 745h115l-127 -147h-91z" />
    <glyph glyph-name="uni03BC" unicode="&#x3bc;" 
d="M188 500v-360q0 -30 17.5 -47.5t47.5 -17.5h34q33 0 49 17.5t16 37.5v370h85v-500h-80v23q-33 -23 -80 -23h-14q-45 0 -75 10v-180h-85v670h85z" />
    <glyph glyph-name="pi" unicode="&#x3c0;" 
d="M48 427v73h444v-73h-90v-322q0 -16 8 -23t27 -7h15v-75h-50q-34 0 -59.5 24t-25.5 76v327h-105v-427h-85v427h-79z" />
    <glyph glyph-name="endash" unicode="&#x2013;" 
d="M460 350v-75h-380v75h380z" />
    <glyph glyph-name="emdash" unicode="&#x2014;" 
d="M507 350v-75h-475v75h475z" />
    <glyph glyph-name="quoteleft" unicode="&#x2018;" 
d="M302 542v-90h-95v90l55 157h70z" />
    <glyph glyph-name="quoteright" unicode="&#x2019;" 
d="M237 610v90h95v-90l-55 -157h-70z" />
    <glyph glyph-name="quotesinglbase" unicode="&#x201a;" 
d="M237 0v90h95v-90l-55 -157h-70z" />
    <glyph glyph-name="quotedblleft" unicode="&#x201c;" 
d="M225 542v-90h-95v90l55 157h70zM380 542v-90h-95v90l55 157h70z" />
    <glyph glyph-name="quotedblright" unicode="&#x201d;" 
d="M160 610v90h95v-90l-55 -157h-70zM315 610v90h95v-90l-55 -157h-70z" />
    <glyph glyph-name="quotedblbase" unicode="&#x201e;" 
d="M160 0v90h95v-90l-55 -157h-70zM315 0v90h95v-90l-55 -157h-70z" />
    <glyph glyph-name="dagger" unicode="&#x2020;" 
d="M89 425v75h141v200h80v-200h140v-75h-140v-425h-80v425h-141z" />
    <glyph glyph-name="daggerdbl" unicode="&#x2021;" 
d="M89 210v75h141v140h-141v75h141v200h80v-200h140v-75h-140v-140h140v-75h-140v-210h-80v210h-141z" />
    <glyph glyph-name="bullet" unicode="&#x2022;" 
d="M345 390v-155h-150v155h150z" />
    <glyph glyph-name="ellipsis" unicode="&#x2026;" 
d="M140 100v-100h-100v100h100zM320 100v-100h-100v100h100zM500 100v-100h-100v100h100z" />
    <glyph glyph-name="perthousand" unicode="&#x2030;" 
d="M229 436.5q-32 -32.5 -90 -32.5h-8q-58 0 -90 32.5t-32 95.5v40q0 63 32 95.5t90 32.5h8q58 0 90 -32.5t32 -95.5v-40q0 -63 -32 -95.5zM178 624q-13 16 -39 16h-8q-26 0 -39 -16t-13 -41v-62q0 -25 13 -41t39 -16h8q26 0 39 16t13 41v62q0 25 -13 41zM529 436v-62
l-515 -73v62zM229 32.5q-32 -32.5 -90 -32.5h-8q-58 0 -90 32.5t-32 95.5v40q0 63 32 95.5t90 32.5h8q58 0 90 -32.5t32 -95.5v-40q0 -63 -32 -95.5zM499 32.5q-32 -32.5 -90 -32.5h-8q-58 0 -90 32.5t-32 95.5v40q0 63 32 95.5t90 32.5h8q58 0 90 -32.5t32 -95.5v-40
q0 -63 -32 -95.5zM178 220q-13 16 -39 16h-8q-26 0 -39 -16t-13 -41v-62q0 -25 13 -41t39 -16h8q26 0 39 16t13 41v62q0 25 -13 41zM448 220q-13 16 -39 16h-8q-26 0 -39 -16t-13 -41v-62q0 -25 13 -41t39 -16h8q26 0 39 16t13 41v62q0 25 -13 41z" />
    <glyph glyph-name="guilsinglleft" unicode="&#x2039;" 
d="M281 506h66l-63 -207l63 -207h-66l-89 207z" />
    <glyph glyph-name="guilsinglright" unicode="&#x203a;" 
d="M192 506h66l89 -207l-89 -207h-66l63 207z" />
    <glyph glyph-name="fraction" unicode="&#x2044;" 
d="M361 810h74l-256 -920h-74z" />
    <glyph glyph-name="Euro" unicode="&#x20ac;" 
d="M246 310h169v-73h-169v-86q0 -31 23 -53t60 -22h122v-76h-112q-87 0 -133.5 42.5t-46.5 127.5v67h-70v73h70v97h-70v73h70v50q0 85 46.5 127.5t133.5 42.5h112v-76h-122q-37 0 -60 -22t-23 -53v-69h169v-73h-169v-97z" />
    <glyph glyph-name="trademark" unicode="&#x2122;" 
d="M405 361h-53l-54 253v-420h-65v447h-65v-447h-68v447h-86v59h325l42 -207l40 207h103v-506h-66v420z" />
    <glyph glyph-name="Omega" unicode="&#x2126;" 
d="M358 98.5q19 22.5 19 52.5v398q0 31 -23 53t-60 22h-54q-37 0 -60 -22t-23 -53v-398q0 -30 20.5 -52.5t50.5 -22.5v-76h-183v76h49q-24 43 -24 94v360q0 85 46.5 127.5t133.5 42.5h34q87 0 133.5 -42.5t46.5 -127.5v-360q0 -53 -23 -94h54v-76h-183v76q27 0 46 22.5z" />
    <glyph glyph-name="partialdiff" unicode="&#x2202;" 
d="M137 402q41 38 127 38h98v109q0 31 -23 53t-60 22h-135v76h125q87 0 132.5 -42.5t45.5 -127.5v-360q0 -82 -45 -126t-113 -44h-35q-68 0 -113 44t-45 126v110q0 84 41 122zM199.5 347.5q-18.5 -17.5 -18.5 -48.5v-148q0 -32 21 -54t57 -22h25q36 0 57 22t21 54v214h-108
q-36 0 -54.5 -17.5z" />
    <glyph glyph-name="Delta" unicode="&#x2206;" 
d="M329 700l161 -700h-440l168 700h111zM382 75l-109 550l-115 -550h224z" />
    <glyph glyph-name="product" unicode="&#x220f;" 
d="M43 625v75h454v-75h-91v-520q0 -16 7 -23t26 -7h15v-75h-50q-34 0 -59.5 24t-25.5 76v525h-110v-625h-87v625h-79z" />
    <glyph glyph-name="summation" unicode="&#x2211;" 
d="M245 267l-155 338v95h361v-75h-273l162 -358l-177 -363h299v-74h-385v94z" />
    <glyph glyph-name="minus" unicode="&#x2212;" 
d="M460 350v-75h-380v75h380z" />
    <glyph glyph-name="uni2215" unicode="&#x2215;" 
d="M390 810h80l-320 -910h-80z" />
    <glyph glyph-name="uni2219" unicode="&#x2219;" 
d="M320 360v-100h-100v100h100z" />
    <glyph glyph-name="radical" unicode="&#x221a;" 
d="M121 0l-99 392h89l72 -311l157 739h177v-75h-106l-165 -745h-125z" />
    <glyph glyph-name="infinity" unicode="&#x221e;" 
d="M226.5 154q-24.5 -13 -62.5 -13h-10q-79 0 -110 38.5t-31 118.5v20q0 80 31 118.5t110 38.5h10q38 0 63.5 -13t44.5 -40q19 27 42.5 40t61.5 13h10q79 0 110 -38.5t31 -118.5v-15q0 -80 -31.5 -121t-109.5 -41h-10q-38 0 -62.5 13t-43.5 40q-19 -27 -43.5 -40z
M108.5 225.5q14.5 -14.5 50.5 -14.5h7q31 0 46 17.5t17 47.5v58q0 32 -15.5 51.5t-47.5 19.5h-7q-38 0 -52.5 -16.5t-14.5 -54.5v-60q2 -34 16.5 -48.5zM431.5 390.5q-14.5 14.5 -50.5 14.5h-7q-31 0 -46 -17.5t-17 -47.5v-58q0 -32 15.5 -51.5t47.5 -19.5h7q38 0 52.5 16.5
t14.5 54.5v60q-2 34 -16.5 48.5z" />
    <glyph glyph-name="uni2224" unicode="&#x2224;" 
d="M320 360v-100h-100v100h100z" />
    <glyph glyph-name="logicaland" unicode="&#x2227;" 
d="M320 360v-100h-100v100h100z" />
    <glyph glyph-name="integral" unicode="&#x222b;" 
d="M215.5 -151.5q9.5 8.5 9.5 21.5v840q0 51 29 80.5t75 29.5h142v-75h-126q-16 0 -25.5 -8.5t-9.5 -21.5v-840q0 -51 -29 -80.5t-75 -29.5h-137v75h121q16 0 25.5 8.5z" />
    <glyph glyph-name="approxequal" unicode="&#x2248;" 
d="M148.5 443.5q36.5 14.5 48.5 14.5h15q13 0 67 -20q52 -20 64 -20h10q7 0 41 15t46 21v-80q-11 -6 -44 -20.5t-44 -14.5h-15q-6 0 -53 17q-65 23 -77 23h-10q-9 0 -46.5 -15t-50.5 -21v80q12 6 48.5 20.5zM148.5 274.5q36.5 14.5 48.5 14.5h15q13 0 67 -20q52 -20 64 -20
h10q7 0 41 15t46 21v-80q-11 -6 -44 -20.5t-44 -14.5h-15q-6 0 -53 17q-65 23 -77 23h-10q-9 0 -46.5 -15t-50.5 -21v80q12 6 48.5 20.5z" />
    <glyph glyph-name="notequal" unicode="&#x2260;" 
d="M460 250v-75h-235l-65 -105h-80l65 105h-65v75h111l78 125h-189v75h235l65 105h80l-65 -105h65v-75h-111l-78 -125h189z" />
    <glyph glyph-name="lessequal" unicode="&#x2264;" 
d="M460 564v-92l-308 -136l308 -117v-94l-380 155v105zM460 75v-75h-380v75h380z" />
    <glyph glyph-name="greaterequal" unicode="&#x2265;" 
d="M388 336l-308 136v92l380 -179v-105l-380 -155v94zM460 75v-75h-380v75h380z" />
    <glyph glyph-name="dotmath" unicode="&#x22c5;" 
d="M320 360v-100h-100v100h100z" />
    <glyph glyph-name="uni25AF" unicode="&#x25af;" 
d="M456 0h-372v700h372v-700zM159 628v-556h222v556h-222z" />
    <glyph glyph-name="lozenge" unicode="&#x25ca;" 
d="M75 350l140 350h110l140 -350l-140 -350h-112zM270 70l108 280l-108 280l-108 -280z" />
    <glyph glyph-name="uni2620" unicode="&#x2620;" 
d="M353 519q37 -20 58 -55t21 -78q0 -57 -28 -102v-52l-26 -18l-43 -75h-129l-43 75l-25 18v52q-29 44 -29 102q0 43 21 78t58 55t83 20q45 0 82 -20zM55.5 351q8.5 -16 13.5 -42l28 -16v-55l-51 21q-17 -11 -27.5 -15t-21.5 -4t-19 5.5t-8 16.5q0 12 9 20.5t24 10.5l13 27
q-8 9 -8 23q0 9 6 16.5t16 7.5q17 0 25.5 -16zM527 359.5q6 -7.5 6 -16.5q0 -14 -8 -23l13 -27q14 -2 23 -10.5t9 -20.5q0 -10 -8 -16t-18 -6q-11 0 -21.5 4t-28.5 15l-51 -17v51l28 16q5 26 13.5 42t26.5 16q10 0 16 -7.5zM169.5 350.5q-11.5 -11.5 -11.5 -28.5t11.5 -29
t27.5 -12q17 0 28.5 12t11.5 29t-11.5 28.5t-28.5 11.5q-16 0 -27.5 -11.5zM315.5 350.5q-11.5 -11.5 -11.5 -28.5t11.5 -29t28.5 -12q16 0 28 12.5t12 28.5q0 17 -12 28.5t-28 11.5q-17 0 -28.5 -11.5zM252.5 265.5q-10.5 -14.5 -16.5 -30.5v-29l35 7l34 -7v29
q-6 16 -16 30.5t-18 14.5t-18.5 -14.5zM92 87q-3 -30 -11 -47t-23 -17q-12 0 -19 8t-7 20q0 7 5 20l-13 24q-14 0 -24.5 8.5t-10.5 20.5q0 11 7.5 18t20.5 7q9 0 20.5 -4.5t26.5 -11.5l72 39l26 -42zM504 144.5q12 4.5 21 4.5q12 0 19.5 -7t7.5 -18q0 -12 -10 -20.5
t-24 -8.5l-14 -24q6 -12 6 -20q0 -12 -7.5 -20t-19.5 -8q-15 0 -23 17t-11 47l-69 43l26 42l71 -39q15 7 27 11.5z" />
    <glyph glyph-name="smileface" unicode="&#x263a;" 
d="M405 503q62 -36 98.5 -98t36.5 -135q0 -74 -36.5 -136t-98.5 -98t-135 -36q-74 0 -136 36t-98 98t-36 136q0 73 36 135t98 98t136 36q73 0 135 -36zM163 457.5q-48 -29.5 -76 -79.5t-28 -108q0 -59 28 -109t76 -79.5t107 -29.5q58 0 106.5 29.5t76.5 79.5t28 109
q0 58 -28 108t-76.5 79.5t-106.5 29.5q-59 0 -107 -29.5zM222.5 378q13.5 -13 13.5 -32q0 -20 -13.5 -33.5t-34.5 -13.5t-34.5 13.5t-13.5 33.5q0 19 13.5 32t34.5 13t34.5 -13zM382.5 378q13.5 -13 13.5 -32q0 -20 -13.5 -33.5t-34.5 -13.5t-34.5 13.5t-13.5 33.5
q0 19 13.5 32t34.5 13t34.5 -13zM367 144.5q-39 -38.5 -97 -38.5t-97 38.5t-46 95.5h44q22 -89 99 -89t99 89h44q-7 -57 -46 -95.5z" />
    <glyph glyph-name="invsmileface" unicode="&#x263b;" 
d="M405 503q62 -36 98.5 -98t36.5 -135q0 -74 -36.5 -136t-98.5 -98t-135 -36q-74 0 -136 36t-98 98t-36 136q0 73 36 135t98 98t136 36q73 0 135 -36zM148.5 383q-13.5 -13 -13.5 -32q0 -20 13.5 -33.5t34.5 -13.5t34.5 13.5t13.5 33.5q0 19 -13.5 32t-34.5 13t-34.5 -13z
M318.5 383q-13.5 -13 -13.5 -32q0 -20 13.5 -33.5t34.5 -13.5t34.5 13.5t13.5 33.5q0 19 -13.5 32t-34.5 13t-34.5 -13zM337.5 170q-26.5 -24 -67.5 -24t-67.5 24t-36.5 65h-43q7 -56 48 -94.5t99 -38.5t99 38.5t48 94.5h-43q-10 -41 -36.5 -65z" />
    <glyph glyph-name="sun" unicode="&#x263c;" 
d="M362 393l81 82l36 -36l-81 -80q25 -31 31 -72h111v-47h-111q-6 -40 -29 -69l79 -78l-36 -36l-79 80q-32 -21 -70 -27v-110h-48v110q-40 6 -70 27l-79 -80l-36 36l79 78q-24 34 -29 69h-111v47h111q6 40 30 72l-80 80l36 36l80 -82q33 23 69 27v107h48v-107q36 -4 68 -27z
M191.5 344q-30.5 -32 -30.5 -80t30.5 -79.5t78.5 -31.5t79 31.5t31 79.5t-31 80t-79 32t-78.5 -32z" />
    <glyph glyph-name="female" unicode="&#x2640;" 
d="M350 518q37 -21 58.5 -57t21.5 -80q0 -60 -38.5 -102.5t-97.5 -50.5v-83h96v-40h-96v-105h-48v105h-96v40h96v82q-59 8 -98 51t-39 103q0 44 21.5 80t58 57t80.5 21t81 -21zM190.5 461q-30.5 -32 -30.5 -80t30.5 -79.5t78.5 -31.5t79 31.5t31 79.5t-31 80t-79 32
t-78.5 -32z" />
    <glyph glyph-name="male" unicode="&#x2642;" 
d="M510 262l-44 -2l-5 99q-1 24 3 48l-2 1l-148 -151q37 -45 37 -102q0 -44 -21.5 -79.5t-58.5 -55.5t-81 -20t-80.5 20t-58 55.5t-21.5 79.5t21.5 80t58 57t80.5 21q45 0 87 -25l152 151l-1 2l-23 -1l-24 1l-100 4l4 42l214 -11zM111.5 235q-30.5 -32 -30.5 -80t30.5 -79.5
t78.5 -31.5t79 31.5t31 79.5t-31 80t-79 32t-78.5 -32z" />
    <glyph glyph-name="spade" unicode="&#x2660;" 
d="M404 411.5q43 -43.5 69.5 -86.5t26.5 -86q0 -48 -26.5 -76.5t-71.5 -28.5q-38 0 -65.5 16t-48.5 50l16 -135h156l40 -65h-460l40 65h156l16 135q-21 -34 -48.5 -50t-65.5 -16q-45 0 -71.5 28.5t-26.5 76.5q0 43 26.5 86t69.5 86.5t134 127.5q91 -84 134 -127.5z" />
    <glyph glyph-name="club" unicode="&#x2663;" 
d="M358 515q32 -24 32 -71q0 -36 -14 -58.5t-40 -43.5q20 9 32.5 11.5t34.5 2.5q47 0 72 -30.5t25 -86.5q0 -46 -29.5 -75.5t-74.5 -29.5q-36 0 -62 16t-46 50l16 -135h156l40 -65h-460l40 65h156l16 135q-21 -34 -47 -50t-61 -16q-45 0 -74.5 29.5t-29.5 75.5q0 56 25 86.5
t72 30.5q22 0 34.5 -2.5t32.5 -11.5q-26 21 -40 43.5t-14 58.5q0 47 32 71t88 24t88 -24z" />
    <glyph glyph-name="heart" unicode="&#x2665;" 
d="M488.5 503q31.5 -36 31.5 -88q0 -55 -31.5 -118t-80.5 -127.5t-138 -169.5q-89 106 -138 170t-80.5 126.5t-31.5 118.5q0 52 31.5 88t84.5 36q49 0 79.5 -25t54.5 -77q24 52 54.5 77t79.5 25q53 0 84.5 -36z" />
    <glyph glyph-name="diamond" unicode="&#x2666;" 
d="M270 -12l-196 278l196 273l196 -273z" />
    <glyph glyph-name="musicalnote" unicode="&#x266a;" 
d="M430 439q18 -27 18 -66q0 -40 -18 -78l-29 12q0 59 -12 87.5t-46 50.5l-23 15v-382q0 -20 -16 -41t-44.5 -35t-63.5 -14q-49 0 -77 18t-28 52q0 38 36.5 64t88.5 26q32 0 56 -13v392h48l47 -31q45 -30 63 -57z" />
    <glyph glyph-name="musicalnotedbl" unicode="&#x266b;" 
d="M510 87q-16 -21 -44.5 -35t-63.5 -14q-49 0 -77 18t-28 52q0 38 36.5 64t88.5 26q32 0 56 -13v311l-235 -59v-359q0 -20 -16 -41t-44.5 -35t-63.5 -14q-49 0 -77 18t-28 52q0 38 36.5 64t88.5 26q32 0 56 -13v356l331 86v-449q0 -20 -16 -41z" />
  </font>
</defs>
</svg>
